返回列表 发新帖

[BD-Rip] [BT下载]绿色贝雷帽 The.Green.Berets.1968.1080p.BluRay.x264-FGT 8.75G

[复制链接]

发表在  2016-7-30 09:40:55 | 显示全部楼层 | 阅读模式
-->
◎译  名 绿色贝雷帽/绿色贝蕾帽/越南大战/越南战火(港)
◎片  名 The Green Berets
◎年  代 1968
◎国  家 美国
◎类  别 动作/剧情/战争
◎语  言 英语/越南语
◎上映日期 1970-06-11
◎IMDb评分  5.6/10 from 9,770 users
◎IMDb链接  http://www.imdb.com/title/tt0063035/
◎豆瓣评分 6.0/10 from 218 users
◎豆瓣链接 https://movie.douban.com/subject/1293611/
◎BT之家整理 http://www.btbbt.cc
◎片  长 142 分钟
◎导  演 约翰·韦恩 John Wayne / 茂文·勒鲁瓦 Mervyn LeRoy / Ray Kellogg
◎主  演 John Wayne


◎简  介


  这部片子由约翰韦恩导演,约翰韦恩、大卫强森主演,是过去三十年来所有越战电影中,主战鹰派的扛鼎代表作。约翰韦恩根本就是好莱坞大美国沙文主义的典范,他在西部片里杀印第安人,在「最长的一日」里杀德国人,现在又在「越南大战」里杀越南人。
  由「越南大战」的英文片名,即可看出本片在於歌颂美国扁绿帽特种部队。事实上,这部电影获得五角大厦鼎立协助,外景队还拉到扁绿帽总部导 演:约翰·韦恩 John Wayne Ray Kellogg
  主 演:约翰·韦恩 John Wayne Jim Hutton George Takei Laird Stuart 迪克·沃尔克 Dick Warlock Yodying Apibal Luke Askew Charles Bail (United States Army John F. Kennedy Center For Special Warfare, North Carolina)去拍摄。
  美国军方在这部片子里下足了本钱,而华纳公司也全面配合,为五角大厦拍军教片,甚至,连片中主题音乐都是军歌进行曲。不过,本片的战争、动作部分,以一九六八年的标準来看,绝对是世界级的。现在讲起越战电影,绝对不能少掉「越南大战」。
  在「越南大战」之后,美国电影界反战意识抬头,再也不见鹰派主战作品,在此之后,几乎所有越战电影都一面倒反战。





Video
ID                                       : 1
Format                                   : AVC
Format/Info                              : Advanced Video Codec
Format profile                           : High@L4.1
Format settings, CABAC                   : Yes
Format settings, ReFrames                : 5 frames
Codec ID                                 : V_MPEG4/ISO/AVC
Duration                                 : 2h 21mn
Bit rate                                 : 8 628 Kbps
Width                                    : 1 920 pixels
Height                                   : 800 pixels
Display aspect ratio                     : 2.40:1
Frame rate mode                          : Constant
Frame rate                               : 23.976 fps
Color space                              : YUV
Chroma subsampling                       : 4:2:0
Bit depth                                : 8 bits
Scan type                                : Progressive
Bits/(Pixel*Frame)                       : 0.234
Stream size                              : 8.38 GiB (96%)
Writing library                          : x264 core 80 r1369 ec8e586
Encoding settings                        : cabac=1 / ref=5 / deblock=1:-1:-1 / analyse=0x3:0x113 / me=umh / subme=7 / psy=1 / psy_rd=1.0:0.0 / mixed_ref=1 / me_range=16 / chroma_me=1 / trellis=2 / 8x8dct=1 / cqm=0 / deadzone=21,11 / fast_pskip=1 / chroma_qp_offset=-2 / threads=6 / sliced_threads=0 / nr=0 / decimate=1 / mbaff=0 / constrained_intra=0 / bframes=3 / b_pyramid=0 / b_adapt=2 / b_bias=0 / direct=3 / wpredb=1 / wpredp=2 / keyint=250 / keyint_min=25 / scenecut=40 / rc_lookahead=40 / rc=2pass / mbtree=1 / bitrate=8628 / ratetol=1.0 / qcomp=0.60 / qpmin=10 / qpmax=51 / qpstep=4 / cplxblur=20.0 / qblur=0.5 / vbv_maxrate=50000 / vbv_bufsize=50000 / ip_ratio=1.40 / aq=1:1.00
Language                                 : English
Default                                  : Yes
Forced                                   : No

Audio
ID                                       : 2
Format                                   : AC-3
Format/Info                              : Audio Coding 3
Mode extension                           : CM (complete main)
Format settings, Endianness              : Big
Codec ID                                 : A_AC3
Duration                                 : 2h 21mn
Bit rate mode                            : Constant
Bit rate                                 : 192 Kbps
Channel(s)                               : 1 channel
Channel positions                        : Front: C
Sampling rate                            : 48.0 KHz
Compression mode                         : Lossy
Stream size                              : 195 MiB (2%)
Language                                 : English
Default                                  : Yes
Forced                                   : No

Text
ID                                       : 3
Format                                   : UTF-8
Codec ID                                 : S_TEXT/UTF8
Codec ID/Info                            : UTF-8 Plain Text
Language                                 : English
Default                                  : Yes
Forced                                   : No






       

本帖子中包含更多资源

您需要 登录 才可以下载或查看,没有帐号?立即注册  

x

发表回复

您需要登录后才可以回帖 登录 | 立即注册  

本版积分规则

无觅相关文章插件

快速回复 返回顶部 返回列表