返回列表 发新帖

[BD-Rip] [BT下载]死人收藏 Paranormal.Captivity.2012.1080p.BluRay.x264.DTS-FGT 4.47G

[复制链接]

发表在  2016-7-30 09:49:09 | 显示全部楼层 | 阅读模式
-->
◎译  名 死人收藏
◎片  名 Dead Collections
◎年  代 2012
◎国  家 美国
◎类  别 恐怖/惊悚
◎语  言 英语
◎BT之家整理 http://www.btbbt.cc
◎导  演 John Orrichio
◎主  演 Roberto Lombardi
      Caitlyn Fletcher
      Edward X. Young


◎简  介


  After the death of her husband, a penniless woman moves into the home of her Uncle. Strange things begin to occur. Is the house haunted or is it something more?


Video
ID                                       : 1
Format                                   : AVC
Format/Info                              : Advanced Video Codec
Format profile                           : High@L4.1
Format settings, CABAC                   : Yes
Format settings, ReFrames                : 4 frames
Codec ID                                 : V_MPEG4/ISO/AVC
Duration                                 : 1h 48mn
Bit rate                                 : 5 023 Kbps
Width                                    : 1 920 pixels
Height                                   : 1 080 pixels
Display aspect ratio                     : 16:9
Frame rate mode                          : Constant
Frame rate                               : 23.976 (24000/1001) fps
Color space                              : YUV
Chroma subsampling                       : 4:2:0
Bit depth                                : 8 bits
Scan type                                : Progressive
Bits/(Pixel*Frame)                       : 0.101
Stream size                              : 3.80 GiB (85%)
Writing library                          : x264 core 148 r2638 7599210
Encoding settings                        : cabac=1 / ref=4 / deblock=1:0:0 / analyse=0x3:0x113 / me=umh / subme=7 / psy=1 / psy_rd=1.00:0.00 / mixed_ref=1 / me_range=16 / chroma_me=1 / trellis=1 / 8x8dct=1 / cqm=0 / deadzone=21,11 / fast_pskip=0 / chroma_qp_offset=-2 / threads=18 / lookahead_threads=3 / sliced_threads=0 / nr=0 / decimate=1 / interlaced=0 / bluray_compat=0 / constrained_intra=0 / bframes=3 / b_pyramid=2 / b_adapt=1 / b_bias=0 / direct=1 / weightb=1 / open_gop=0 / weightp=2 / keyint=250 / keyint_min=23 / scenecut=40 / intra_refresh=0 / rc_lookahead=40 / rc=crf / mbtree=1 / crf=20.0 / qcomp=0.60 / qpmin=0 / qpmax=69 / qpstep=4 / ip_ratio=1.40 / aq=1:1.00
Default                                  : Yes
Forced                                   : No

Audio
ID                                       : 2
Format                                   : DTS
Format/Info                              : Digital Theater Systems
Mode                                     : 16
Format settings, Endianness              : Big
Codec ID                                 : A_DTS
Duration                                 : 1h 48mn
Bit rate mode                            : Constant
Bit rate                                 : 768 Kbps
Channel(s)                               : 2 channels
Channel positions                        : Front: L R
Sampling rate                            : 48.0 KHz
Frame rate                               : 93.750 fps (512 spf)
Bit depth                                : 24 bits
Compression mode                         : Lossy
Stream size                              : 595 MiB (13%)
Language                                 : English
Default                                  : No
Forced                                   : No

Menu
00:00:00.000                             : en:00:00:00.000
00:08:54.909                             : en:00:08:54.909
00:17:21.415                             : en:00:17:21.415
00:27:03.997                             : en:00:27:03.997
00:36:01.743                             : en:00:36:01.743
00:45:04.911                             : en:00:45:04.911
00:53:34.128                             : en:00:53:34.128
01:03:03.530                             : en:01:03:03.530
01:10:05.201                             : en:01:10:05.201
01:21:00.606                             : en:01:21:00.606
01:30:11.323                             : en:01:30:11.323
01:39:20.997                             : en:01:39:20.997





       

本帖子中包含更多资源

您需要 登录 才可以下载或查看,没有帐号?立即注册  

x

发表回复

您需要登录后才可以回帖 登录 | 立即注册  

本版积分规则

无觅相关文章插件

快速回复 返回顶部 返回列表