返回列表 发新帖

[WEB-DL] [BT下载]塔卢拉/塔路亚 Tallulah.2016.720p.WEBRip.x264.AAC2.0-TheRival 1.57G

[复制链接]

发表在  2016-7-30 20:43:41 | 显示全部楼层 | 阅读模式
-->
◎译  名 塔卢拉/塔路亚
◎片  名 Tallulah
◎年  代 2016
◎国  家 美国
◎类  别 剧情
◎语  言 英语
◎上映日期 2016-01-23(圣丹斯电影节)
◎IMDb评分  6.4/10 from 137 users
◎IMDb链接  http://www.imdb.com/title/tt1639084/

◎BT之家整理 http://www.btbbt.cc
◎导  演 夏安·海德 Sian Heder
◎主  演 艾伦·佩吉 Ellen Page
      艾莉森·珍妮 Allison Janney
      奥卓·阿杜巴 Uzo Aduba
      扎克瑞·昆图 Zachary Quinto
      大卫·札亚斯 David Zayas
      坦米·布兰查德 Tammy Blanchard
      约翰·本杰明·西基 John Benjamin Hickey
      弗瑞德里克·林恩 Fredric Lehne
      伊万·乔尼凯特 Evan Jonigkeit


◎简  介


  该片讲述塔卢拉从一位不负责任的母亲那里偷得婴儿后,当起假妈妈。佩吉饰演的塔卢拉无家可归,吃睡住皆在一辆货车上。而在华盛顿广场公园的戏份中,佩吉开始溺爱地照顾窃来的婴儿。


◎获奖情况


  第32届圣丹斯电影节  (2016)
  评审团大奖 剧情片(提名)


Video
ID                                       : 1
Format                                   : AVC
Format/Info                              : Advanced Video Codec
Format profile                           : Main@L3.1
Format settings, CABAC                   : Yes
Format settings, ReFrames                : 4 frames
Codec ID                                 : avc1
Codec ID/Info                            : Advanced Video Coding
Duration                                 : 1h 45mn
Bit rate                                 : 2 000 Kbps
Width                                    : 1 280 pixels
Height                                   : 720 pixels
Display aspect ratio                     : 16:9
Frame rate mode                          : Constant
Frame rate                               : 23.976 (23976/1000) fps
Color space                              : YUV
Chroma subsampling                       : 4:2:0
Bit depth                                : 8 bits
Scan type                                : Progressive
Bits/(Pixel*Frame)                       : 0.091
Stream size                              : 1.47 GiB (94%)
Writing library                          : x264 core 146
Encoding settings                        : cabac=1 / ref=1 / deblock=1:0:0 / analyse=0x1:0x1 / me=dia / subme=1 / psy=1 / psy_rd=1.00:0.00 / mixed_ref=0 / me_range=16 / chroma_me=1 / trellis=0 / 8x8dct=0 / cqm=0 / deadzone=21,11 / fast_pskip=1 / chroma_qp_offset=0 / threads=6 / lookahead_threads=1 / sliced_threads=0 / nr=0 / decimate=1 / interlaced=0 / bluray_compat=0 / constrained_intra=0 / bframes=3 / b_pyramid=2 / b_adapt=1 / b_bias=0 / direct=1 / weightb=1 / open_gop=0 / weightp=1 / keyint=250 / keyint_min=23 / scenecut=40 / intra_refresh=0 / rc=2pass / mbtree=0 / bitrate=2000 / ratetol=1.0 / qcomp=0.60 / qpmin=0 / qpmax=69 / qpstep=4 / cplxblur=20.0 / qblur=0.5 / ip_ratio=1.40 / pb_ratio=1.30 / aq=1:1.00

Audio
ID                                       : 2
Format                                   : AAC
Format/Info                              : Advanced Audio Codec
Format profile                           : LC
Codec ID                                 : 40
Duration                                 : 1h 45mn
Bit rate mode                            : Constant
Bit rate                                 : 128 Kbps
Channel(s)                               : 2 channels
Channel positions                        : Front: L R
Sampling rate                            : 48.0 KHz
Frame rate                               : 46.875 fps (1024 spf)
Compression mode                         : Lossy
Stream size                              : 96.8 MiB (6%)
Language                                 : English
Default                                  : Yes
Alternate group                          : 1





       

本帖子中包含更多资源

您需要 登录 才可以下载或查看,没有帐号?立即注册  

x

发表于 2016-7-30 21:03:50 | 显示全部楼层
谢谢分享,辛苦了!

发表回复

您需要登录后才可以回帖 登录 | 立即注册  

本版积分规则

无觅相关文章插件

快速回复 返回顶部 返回列表