返回列表 发新帖

[BD-Rip] [BT下载]骑士俏佳人 The.Lady.Musketeer.2004.Part.1.1080p.BluRay.x264.DTS-FGT 5.63G

[复制链接]

发表在  2016-7-30 22:09:12 | 显示全部楼层 | 阅读模式
-->
◎译  名 骑士俏佳人/火枪女英雄/俏剑客
◎片  名 La Femme Musketeer
◎年  代 2004
◎国  家 克罗地亚/德国/法国
◎类  别 动作/冒险
◎语  言 英语
◎上映日期 2004-07-20(美国)
◎IMDb评分  5.7/10 from 810 users
◎IMDb链接  http://www.imdb.com/title/tt0341855/
◎豆瓣评分 6.9/10 from 67 users
◎豆瓣链接 https://movie.douban.com/subject/1916841/
◎BT之家整理 http://www.btbbt.cc
◎片  长 163分钟
◎导  演 史蒂夫·博伊姆 Steve Boyum
◎主  演 娜塔莎·金斯基 Nastassja Kinski
      杰拉尔·德帕迪约 Gérard Depardieu
      麦克尔·约克 Michael York


◎简  介


  1660年,一场血腥的战争在法国和西班牙之间展开,和平似乎遥遥无期。在法国王朝,一场权力斗争也在红衣主教玛扎霖与年轻的国王路易十四之间展开。主教得到禁卫队的支持,而路易十四手下则是著名的侍卫队。瓦伦蒂娜是法国最著名的骑士达达尼昂之女,她不仅从父亲那儿学会了精湛的剑术,也继承了他对骑士事业的热忱。虽然达塔尼昂早已退休回家,但他仍然不忘报效国家,希望女儿可以继续他的使命。为了加入国王的骑士团,瓦伦蒂娜不辞辛苦来到了巴黎。但因为她是女儿身,纵使父亲的好友——侍卫军总指挥菲诺也不敢冒然让她加入。
  瓦伦蒂娜初生牛犊不怕虎,一心想证明自己的实力,并接受了侍卫队击剑冠军和他的朋友们的挑战。没想到却意外认出这三个人正是小时候的玩伴甘斯托、天伊、安东尼,四人重逢非常开心,并配合默契地击败了前来捣乱的禁卫队士兵。此时的巴黎几乎完全被玛扎霖掌握,他为中饱私囊不惜侵吞战争补给款项。年轻的路易十四国王无法掌权,目前唯一的解决办法就是和西班牙公主结婚,中止两国之间的战争,中断玛扎霖巨额的经济来源,然后再从长计议。但不巧的是,路易十四的情人正是红衣主教的侄女玛瑞亚。巨大的经济利益和亲情关系让玛扎霖无论如何都不能袖手旁观,于是,一场秘密的刺杀行动开始了。
  更水深火热的是玛扎霖派波顿夫人前往英国色诱王子,并得到了一封能证明路易十四国王并非正统继承人的信。玛扎霖谋权篡位的野心日益增大,在一次偶然的机会中,玛瑞亚发现了这封秘密信函,出于对路易十四的爱,她决定告之这个秘密。没想到却被心狠手辣的波顿夫人杀死,并污蔑瓦伦蒂娜是杀人凶手。瓦伦蒂娜以及新生一代的骑士们为了终止法国与西班牙之间的大战,也为了效忠于他们的国王,与主教的守卫们展开了殊死的搏斗。他们成功地将前来联婚的西班牙公主护送到了巴黎,并将那封关于王位传承的信交给了国王。


Video
ID                                       : 1
Format                                   : AVC
Format/Info                              : Advanced Video Codec
Format profile                           : High@L4.1
Format settings, CABAC                   : Yes
Format settings, ReFrames                : 4 frames
Codec ID                                 : V_MPEG4/ISO/AVC
Duration                                 : 1h 27mn
Bit rate                                 : 7 656 Kbps
Width                                    : 1 920 pixels
Height                                   : 1 080 pixels
Display aspect ratio                     : 16:9
Frame rate mode                          : Constant
Frame rate                               : 23.976 (24000/1001) fps
Color space                              : YUV
Chroma subsampling                       : 4:2:0
Bit depth                                : 8 bits
Scan type                                : Progressive
Bits/(Pixel*Frame)                       : 0.154
Stream size                              : 4.60 GiB (82%)
Writing library                          : x264 core 125 r2200 999b753
Encoding settings                        : cabac=1 / ref=4 / deblock=1:-1:-1 / analyse=0x3:0x133 / me=umh / subme=7 / psy=1 / psy_rd=1.00:0.15 / mixed_ref=1 / me_range=16 / chroma_me=1 / trellis=1 / 8x8dct=1 / cqm=0 / deadzone=21,11 / fast_pskip=0 / chroma_qp_offset=-3 / threads=9 / lookahead_threads=1 / sliced_threads=0 / nr=0 / decimate=1 / interlaced=0 / bluray_compat=0 / constrained_intra=0 / bframes=3 / b_pyramid=2 / b_adapt=1 / b_bias=0 / direct=1 / weightb=1 / open_gop=0 / weightp=2 / keyint=250 / keyint_min=23 / scenecut=40 / intra_refresh=0 / rc_lookahead=40 / rc=2pass / mbtree=1 / bitrate=7656 / ratetol=1.0 / qcomp=0.60 / qpmin=0 / qpmax=69 / qpstep=4 / cplxblur=20.0 / qblur=0.5 / ip_ratio=1.40 / aq=1:1.00
Default                                  : Yes
Forced                                   : No

Audio
ID                                       : 2
Format                                   : DTS
Format/Info                              : Digital Theater Systems
Mode                                     : 16
Format settings, Endianness              : Big
Codec ID                                 : A_DTS
Duration                                 : 1h 27mn
Bit rate mode                            : Constant
Bit rate                                 : 1 509 Kbps
Channel(s)                               : 6 channels
Channel positions                        : Front: L C R, Side: L R, LFE
Sampling rate                            : 48.0 KHz
Frame rate                               : 93.750 fps (512 spf)
Bit depth                                : 16 bits
Compression mode                         : Lossy
Stream size                              : 950 MiB (16%)
Language                                 : English
Default                                  : Yes
Forced                                   : No






       

本帖子中包含更多资源

您需要 登录 才可以下载或查看,没有帐号?立即注册  

x

发表回复

您需要登录后才可以回帖 登录 | 立即注册  

本版积分规则

无觅相关文章插件

快速回复 返回顶部 返回列表