返回列表 发新帖

[BD-Rip] [BT下载]沙丘魔堡2000/沙丘2000 Dune.2000.Part1.1080p.BluRay.x264.DTS-FGT 7.24G

[复制链接]

发表在  2016-7-30 21:17:02 | 显示全部楼层 | 阅读模式
-->
◎译  名 沙丘魔堡2000/沙丘2000
◎片  名 Dune
◎年  代 2000
◎国  家 美国/加拿大/德国/意大利
◎类  别 剧情/科幻/奇幻/冒险
◎语  言 英语/意大利语
◎上映日期 2000-12-03
◎IMDb评分  7.1/10 from 14,802 users
◎IMDb链接  http://www.imdb.com/title/tt0142032/
◎豆瓣评分 6.6/10 from 173 users
◎豆瓣链接 https://movie.douban.com/subject/1303766/
◎BT之家整理 http://www.btbbt.cc
◎集  数 3
◎导  演 John Harrison (I)
◎主  演 William Hurt
      Alec Newman
      Saskia Reeves


◎简  介


  电影《沙丘魔堡》是美国的科幻电影,故事发生在一个遥远的未来世界,那时人类的文明是由帝国、垄断恒星间运输的宇宙协会、掌握行星领土的领主共同支撑。沙丹四世是已知宇宙的帝王,他凭借索多长突击队控制着帝国,使反抗势力不敢妄动。凯勒丹因具威慑力而被送到沙的行星,这里出产能让宇航员具备特殊能力的香料,大部分香料开采被他和儿子保罗所控制,并组织费瑞曼人向全宇宙进行圣战,获得帝国的绝对权力。另有游戏《沙丘魔堡》。


Video
ID                                       : 1
Format                                   : AVC
Format/Info                              : Advanced Video Codec
Format profile                           : High@L4.1
Format settings, CABAC                   : Yes
Format settings, ReFrames                : 4 frames
Codec ID                                 : V_MPEG4/ISO/AVC
Duration                                 : 1h 35mn
Bit rate                                 : 9 127 Kbps
Width                                    : 1 920 pixels
Height                                   : 1 080 pixels
Display aspect ratio                     : 16:9
Frame rate mode                          : Constant
Frame rate                               : 24.000 fps
Color space                              : YUV
Chroma subsampling                       : 4:2:0
Bit depth                                : 8 bits
Scan type                                : Progressive
Bits/(Pixel*Frame)                       : 0.183
Stream size                              : 6.09 GiB (84%)
Writing library                          : x264 core 142 r2431 ac76440
Encoding settings                        : cabac=1 / ref=4 / deblock=1:-3:-3 / analyse=0x3:0x133 / me=umh / subme=7 / psy=1 / psy_rd=1.00:0.15 / mixed_ref=1 / me_range=16 / chroma_me=1 / trellis=1 / 8x8dct=1 / cqm=0 / deadzone=21,11 / fast_pskip=0 / chroma_qp_offset=-3 / threads=12 / lookahead_threads=2 / sliced_threads=0 / nr=0 / decimate=1 / interlaced=0 / bluray_compat=0 / constrained_intra=0 / bframes=3 / b_pyramid=2 / b_adapt=1 / b_bias=0 / direct=3 / weightb=1 / open_gop=0 / weightp=2 / keyint=240 / keyint_min=24 / scenecut=40 / intra_refresh=0 / rc_lookahead=40 / rc=crf / mbtree=1 / crf=20.0 / qcomp=0.60 / qpmin=0 / qpmax=69 / qpstep=4 / ip_ratio=1.40 / aq=1:1.00
Language                                 : English
Default                                  : Yes
Forced                                   : No

Audio
ID                                       : 2
Format                                   : DTS
Format/Info                              : Digital Theater Systems
Mode                                     : 16
Format settings, Endianness              : Big
Codec ID                                 : A_DTS
Duration                                 : 1h 35mn
Bit rate mode                            : Constant
Bit rate                                 : 1 509 Kbps
Channel(s)                               : 6 channels
Channel positions                        : Front: L C R, Side: L R, LFE
Sampling rate                            : 48.0 KHz
Frame rate                               : 93.750 fps (512 spf)
Bit depth                                : 24 bits
Compression mode                         : Lossy
Stream size                              : 1.01 GiB (14%)
Language                                 : English
Default                                  : Yes
Forced                                   : No

Menu
00:00:00.000                             : en:00:00:00.000
00:10:19.917                             : en:00:10:19.917
00:21:08.000                             : en:00:21:08.000
00:28:17.417                             : en:00:28:17.417
00:38:21.000                             : en:00:38:21.000
00:45:50.417                             : en:00:45:50.417
00:52:34.042                             : en:00:52:34.042
00:59:30.208                             : en:00:59:30.208
01:05:32.417                             : en:01:05:32.417
01:12:29.167                             : en:01:12:29.167
01:20:46.125                             : en:01:20:46.125
01:26:53.833                             : en:01:26:53.833
01:33:31.917                             : en:01:33:31.917





       

本帖子中包含更多资源

您需要 登录 才可以下载或查看,没有帐号?立即注册  

x

发表于 2016-8-5 10:50:24 | 显示全部楼层
感谢分享 好人一生平安

发表于 2016-8-11 13:56:00 | 显示全部楼层

发表回复

您需要登录后才可以回帖 登录 | 立即注册  

本版积分规则

无觅相关文章插件

快速回复 返回顶部 返回列表