返回列表 发新帖

[综艺] 【维多利亚的秘密内衣秀2015】全球美女超模 高码收藏版1080P/TS/13.2GB

[复制链接]

发表在  2016-7-31 00:00:00 | 显示全部楼层 | 阅读模式
【维多利亚的秘密内衣秀2015】全球美女超模 高码收藏版1080P/TS/13.2GB

General #1
ID : 1 (0x1)
Complete name : Victoria's Secret Fashion Show 2015.ts
Format : MPEG-TS
File size : 13.2 GiB
Duration : 46mn 31s
Overall bit rate mode : Variable
Overall bit rate : 40.8 Mbps
Maximum Overall bit rate : 35.5 Mbps
Movie name : NNO128EC

Video #1
ID : 4113 (0x1011)
Menu ID : 1 (0x1)
Format : MPEG Video
Format version : Version 2
Format profile : 4:2:2@High
Format settings, BVOP : Yes
Format settings, Matrix : Custom
Format settings, GOP : M=3, N=15
Format settings, picture structure : Frame
Codec ID : 2
Duration : 46mn 30s
Maximum bit rate : 35.3 Mbps
Width : 1920 pixels
Height : 1080 pixels
Display aspect ratio : 16:9
Frame rate : 29.970 (30000/1001) FPS
Standard : Component
Color space : YUV
Chroma subsampling : 4:2:2
Bit depth : 8 bits
Scan type : Interlaced
Scan order : Top Field First
Compression mode : Lossy
Time code of first frame : 08:00:37;18
Time code source : Group of pictures header
GOP, Open/Closed : Open
Color primaries : BT.709
Transfer characteristics : BT.709
Matrix coefficients : BT.709

Audio #1
ID : 4352 (0x1100)
Menu ID : 1 (0x1)
Format : DTS
Format/Info : Digital Theater Systems
Format profile : MA / Core
Mode : 16
Format settings, Endianness : Big
Muxing mode : Stream extension
Codec ID : 134
Duration : 46mn 30s
Bit rate mode : Variable / Constant
Bit rate : Unknown / 1509 Kbps
Channel(s) : 6 channels
Channel positions : Front: L C R, Side: L R, LFE
Sampling rate : 48.0 KHz
Frame rate :  93.750 FPS (512 spf)
Bit depth : 24 bits
Compression mode : Lossless / Lossy
Delay relative to video : 6 ms
Language : English

Audio #2
ID : 4353 (0x1101)
Menu ID : 1 (0x1)
Format : MPEG Audio
Format version : Version 1
Format profile : Layer 2
Mode : Joint stereo
Codec ID : 4
Duration : 46mn 30s
Bit rate mode : Constant
Bit rate : 256 Kbps
Channel(s) : 2 channels
Sampling rate : 48.0 KHz
Compression mode : Lossy
Delay relative to video : 23ms
Stream size : 85.2 MiB (1%)
Language : English

Audio #3
ID : 4354 (0x1102)
Menu ID : 1 (0x1)
Format : MPEG Audio
Format version : Version 1
Format profile : Layer 2
Mode extension : Intensity Stereo + MS Stereo
Codec ID : 4
Duration : 46mn 30s
Bit rate mode : Constant
Bit rate : 256 Kbps
Channel(s) : 2 channels
Sampling rate : 48.0 KHz
Compression mode : Lossy
Delay relative to video : 11ms
Stream size : 85.2 MiB (1%)
Language : English

Text #1
ID : 4113 (0x1011)-CC1
Menu ID : 1 (0x1)
Format : EIA-608
Muxing mode : A/53 / DTVCC Transport
Muxing mode, more info : Muxed in Video #1
Duration : 46mn 30s
Bit rate mode : Constant
Stream size : 0.00 Byte (0%)

Text #2
ID : 4113 (0x1011)-1
Menu ID : 1 (0x1)
Format : EIA-708
Muxing mode : A/53 / DTVCC Transport
Muxing mode, more info : Muxed in Video #1
Duration : 46mn 30s
Bit rate mode : Constant
Stream size : 0.00 Byte (0%)

Text #3
ID : 4113 (0x1011)-1
Menu ID : 1 (0x1)
Format : EIA-708
Muxing mode : A/53 / DTVCC Transport
Muxing mode, more info : Muxed in Video #1
Duration : 46mn 30s
Bit rate mode : Constant
Stream size : 0.00 Byte (0%)

Text #4
ID : 4113 (0x1011)-2
Menu ID : 1 (0x1)
Format : EIA-708
Muxing mode : A/53 / DTVCC Transport
Muxing mode, more info : Muxed in Video #1
Duration : 46mn 30s
Bit rate mode : Constant
Stream size : 0.00 Byte (0%)

建议使用极速迅雷来高速下载!最高峰值12MB
播放器: Potplaye/MPC-HC

1080p高码率版本BT种子文件下载

本帖子中包含更多资源

您需要 登录 才可以下载或查看,没有帐号?立即注册  

x

发表于 2016-8-1 18:55:06 | 显示全部楼层
这个不错哦 好东西 谢谢lz

发表回复

您需要登录后才可以回帖 登录 | 立即注册  

本版积分规则

无觅相关文章插件

快速回复 返回顶部 返回列表