返回列表 发新帖

[BD-Rip] [BT下载]小镇反面 Wrong.Side.of.Town.2010.1080p.BluRay.x264.DTS-FGT 4.14G

[复制链接]

发表在  2016-7-31 09:29:47 | 显示全部楼层 | 阅读模式
-->
◎译  名 小镇反面
◎片  名 Wrong Side of Town
◎年  代 2010
◎国  家 美国
◎类  别 动作/喜剧/犯罪
◎语  言 英语
◎上映日期 2010-02-23
◎IMDb评分  3.9/10 from 2,339 users
◎IMDb链接  http://www.imdb.com/title/tt1431191/
◎豆瓣评分 4.2/10 from 431 users
◎豆瓣链接 https://movie.douban.com/subject/3718805/
◎BT之家整理 http://www.btbbt.cc
◎片  长 88分钟
◎导  演 David DeFalco
◎主  演 Rob Van Dam


◎简  介


  该电影主要讲述的是前海豹部队成员BOBBY KALINOWSKI 退役后成为了一名景观设计师,与他的妻子DAWN还有16岁的女儿Brianna住在洛杉矶的郊区。一天晚上他们接受新邻居CLAY和ELISE FREEMAN 的邀请,到市中心的一个俱乐部去。他们不知道这是一场生死考验的开始。



Video
ID                                       : 1
Format                                   : AVC
Format/Info                              : Advanced Video Codec
Format profile                           : High@L4.1
Format settings, CABAC                   : Yes
Format settings, ReFrames                : 4 frames
Codec ID                                 : V_MPEG4/ISO/AVC
Duration                                 : 1h 27mn
Bit rate                                 : 5 155 Kbps
Width                                    : 1 920 pixels
Height                                   : 1 040 pixels
Display aspect ratio                     : 1.85:1
Frame rate mode                          : Constant
Frame rate                               : 23.976 fps
Color space                              : YUV
Chroma subsampling                       : 4:2:0
Bit depth                                : 8 bits
Scan type                                : Progressive
Bits/(Pixel*Frame)                       : 0.108
Stream size                              : 3.14 GiB (76%)
Writing library                          : x264 core 107 r1745 4785e8e
Encoding settings                        : cabac=1 / ref=4 / deblock=1:0:0 / analyse=0x3:0x133 / me=umh / subme=7 / psy=1 / psy_rd=1.00:0.00 / mixed_ref=1 / me_range=16 / chroma_me=1 / trellis=1 / 8x8dct=1 / cqm=0 / deadzone=21,11 / fast_pskip=0 / chroma_qp_offset=-2 / threads=6 / sliced_threads=0 / nr=0 / decimate=1 / interlaced=0 / constrained_intra=0 / bframes=3 / b_pyramid=2 / b_adapt=1 / b_bias=0 / direct=1 / weightb=1 / open_gop=0 / weightp=2 / keyint=250 / keyint_min=23 / scenecut=40 / intra_refresh=0 / rc_lookahead=40 / rc=crf / mbtree=1 / crf=20.0 / qcomp=0.60 / qpmin=10 / qpmax=51 / qpstep=4 / ip_ratio=1.40 / aq=1:1.00
Language                                 : English
Default                                  : Yes
Forced                                   : No

Audio
ID                                       : 2
Format                                   : DTS
Format/Info                              : Digital Theater Systems
Mode                                     : 16
Format settings, Endianness              : Big
Codec ID                                 : A_DTS
Duration                                 : 1h 27mn
Bit rate mode                            : Constant
Bit rate                                 : 1 509 Kbps
Channel(s)                               : 6 channels
Channel positions                        : Front: L C R, Side: L R, LFE
Sampling rate                            : 48.0 KHz
Frame rate                               : 93.750 fps (512 spf)
Bit depth                                : 24 bits
Compression mode                         : Lossy
Stream size                              : 941 MiB (22%)
Language                                 : English
Default                                  : No
Forced                                   : No






       

本帖子中包含更多资源

您需要 登录 才可以下载或查看,没有帐号?立即注册  

x

发表回复

您需要登录后才可以回帖 登录 | 立即注册  

本版积分规则

无觅相关文章插件

快速回复 返回顶部 返回列表