返回列表 发新帖

[BD-Rip] [BT下载]堕胎 Pro.Life.2007.UNCUT.1080p.BluRay.x264.DTS-FGT 4.86G

[复制链接]

发表在  2016-7-31 11:45:09 | 显示全部楼层 | 阅读模式
-->
◎译  名 堕胎
◎片  名 Pro-Life
◎年  代 2006
◎国  家 美国
◎类  别 惊悚/恐怖
◎语  言 英语
◎上映日期 2006-11-14
◎IMDb评分  5.6/10 from 2,637 users
◎IMDb链接  http://www.imdb.com/title/tt0785532/
◎豆瓣评分 4.6/10 from 353 users
◎豆瓣链接 https://movie.douban.com/subject/2032910/
◎BT之家整理 http://www.btbbt.cc
◎片  长 57 分钟
◎导  演 约翰·卡朋特 John Carpenter
◎主  演 Ron Perlman
      Emmanuelle Vaugiere


◎简  介


  Pro-Life| directed by John Carpenter| written by Drew McWeeny & Scott Swan| tells the story of a young girl trapped inside a clinic| who discovers the only thing
more dangerous than her pursuers is the demonic secret that she carries within her. Ron Perlman| Mark Feuerstein| Emannuelle Vaugiere and Caitlin Wachs star.


Video
ID                                       : 1
Format                                   : AVC
Format/Info                              : Advanced Video Codec
Format profile                           : High@L4.1
Format settings, CABAC                   : Yes
Format settings, ReFrames                : 4 frames
Codec ID                                 : V_MPEG4/ISO/AVC
Duration                                 : 57mn 9s
Bit rate                                 : 10.7 Mbps
Width                                    : 1 920 pixels
Height                                   : 1 080 pixels
Display aspect ratio                     : 16:9
Frame rate mode                          : Constant
Frame rate                               : 23.976 (24000/1001) fps
Color space                              : YUV
Chroma subsampling                       : 4:2:0
Bit depth                                : 8 bits
Scan type                                : Progressive
Bits/(Pixel*Frame)                       : 0.215
Stream size                              : 4.16 GiB (86%)
Writing library                          : x264 core 120 r2164 da19765
Encoding settings                        : cabac=1 / ref=4 / deblock=1:0:0 / analyse=0x3:0x113 / me=umh / subme=7 / psy=1 / psy_rd=1.00:0.00 / mixed_ref=1 / me_range=16 / chroma_me=1 / trellis=1 / 8x8dct=1 / cqm=0 / deadzone=21,11 / fast_pskip=0 / chroma_qp_offset=-2 / threads=6 / sliced_threads=0 / nr=0 / decimate=1 / interlaced=0 / bluray_compat=0 / constrained_intra=0 / bframes=3 / b_pyramid=2 / b_adapt=1 / b_bias=0 / direct=1 / weightb=1 / open_gop=0 / weightp=2 / keyint=250 / keyint_min=23 / scenecut=40 / intra_refresh=0 / rc_lookahead=40 / rc=2pass / mbtree=1 / bitrate=10679 / ratetol=1.0 / qcomp=0.60 / qpmin=0 / qpmax=69 / qpstep=4 / cplxblur=20.0 / qblur=0.5 / ip_ratio=1.40 / aq=1:1.00
Default                                  : Yes
Forced                                   : No

Audio
ID                                       : 2
Format                                   : DTS
Format/Info                              : Digital Theater Systems
Mode                                     : 16
Format settings, Endianness              : Big
Codec ID                                 : A_DTS
Duration                                 : 57mn 9s
Bit rate mode                            : Constant
Bit rate                                 : 1 509 Kbps
Channel(s)                               : 6 channels
Channel positions                        : Front: L C R, Side: L R, LFE
Sampling rate                            : 48.0 KHz
Frame rate                               : 93.750 fps (512 spf)
Bit depth                                : 24 bits
Compression mode                         : Lossy
Stream size                              : 617 MiB (12%)
Language                                 : English
Default                                  : No
Forced                                   : No

Menu
00:00:00.000                             : en:00:00:00.000
00:05:15.941                             : en:00:05:15.941
00:09:29.486                             : en:00:09:29.486
00:14:38.294                             : en:00:14:38.294
00:18:21.559                             : en:00:18:21.559
00:24:03.776                             : en:00:24:03.776
00:29:02.199                             : en:00:29:02.199
00:34:49.462                             : en:00:34:49.462
00:41:25.149                             : en:00:41:25.149
00:46:18.567                             : en:00:46:18.567
00:52:08.792                             : en:00:52:08.792
00:55:26.907                             : en:00:55:26.907





       

本帖子中包含更多资源

您需要 登录 才可以下载或查看,没有帐号?立即注册  

x

发表于 2016-8-1 18:53:01 | 显示全部楼层
清晰度感觉一般啊 谢谢lz

发表回复

您需要登录后才可以回帖 登录 | 立即注册  

本版积分规则

无觅相关文章插件

快速回复 返回顶部 返回列表