返回列表 发新帖

[BD-Rip] [BT下载]马可波罗传 Marco.Polo.2007.Part1.1080p.BluRay.x264.DTS-FGT 6.61G

[复制链接]

发表在  2016-7-31 11:27:33 | 显示全部楼层 | 阅读模式
-->
◎译  名 马可波罗传
◎片  名 Marco Polo
◎年  代 2007
◎国  家 美国
◎语  言 英语
◎上映日期 2007-03-19
◎IMDb评分  6.1/10 from 1,162 users
◎IMDb链接  http://www.imdb.com/title/tt0813789/
◎豆瓣评分 4.5/10 from 94 users
◎豆瓣链接 https://movie.douban.com/subject/1890549/
◎BT之家整理 http://www.btbbt.cc
◎导  演 Kevin Connor
◎主  演 Ian Somerhalder
      B.D. Wong


◎简  介


  此片为在HALLMARK电视台播放的电视电影,牧师带着随从们开始了传教之旅
  途中Marco Polo (Ian Somerhalder, "Lost")被Kublai Khan (Brian Dennehy,"Assault on Precinct13")的传教队伍抛弃在了山区,
  由于教士们怀疑中国是否存在,因而准备折返。但是Polo义无反顾地决定孤身前往这个神秘的国度,随行带上了他的仆人Pedro (B.D. Wong, "Law & Order: SVU")。主仆两人一路孤立无援地向世界的另一边艰苦跋涉,用了整整20年的时间。
  最终Marco Polo把一路的经历记载了下来带回了欧洲,就是这本记录永远地改变了历史。



Video
ID                                       : 1
Format                                   : AVC
Format/Info                              : Advanced Video Codec
Format profile                           : High@L4.1
Format settings, CABAC                   : Yes
Format settings, ReFrames                : 4 frames
Codec ID                                 : V_MPEG4/ISO/AVC
Duration                                 : 1h 28mn
Bit rate                                 : 8 944 Kbps
Width                                    : 1 920 pixels
Height                                   : 1 080 pixels
Display aspect ratio                     : 16:9
Frame rate mode                          : Constant
Frame rate                               : 23.976 fps
Color space                              : YUV
Chroma subsampling                       : 4:2:0
Bit depth                                : 8 bits
Scan type                                : Progressive
Bits/(Pixel*Frame)                       : 0.180
Stream size                              : 5.55 GiB (84%)
Writing library                          : x264 core 142 r2431 ac76440
Encoding settings                        : cabac=1 / ref=4 / deblock=1:-2:-2 / analyse=0x3:0x113 / me=umh / subme=7 / psy=1 / psy_rd=1.00:0.00 / mixed_ref=1 / me_range=16 / chroma_me=1 / trellis=1 / 8x8dct=1 / cqm=0 / deadzone=21,11 / fast_pskip=0 / chroma_qp_offset=-2 / threads=3 / lookahead_threads=1 / sliced_threads=0 / nr=0 / decimate=1 / interlaced=0 / bluray_compat=0 / constrained_intra=0 / bframes=3 / b_pyramid=2 / b_adapt=1 / b_bias=0 / direct=1 / weightb=1 / open_gop=0 / weightp=2 / keyint=250 / keyint_min=23 / scenecut=40 / intra_refresh=0 / rc_lookahead=40 / rc=crf / mbtree=1 / crf=20.0 / qcomp=0.60 / qpmin=0 / qpmax=69 / qpstep=4 / ip_ratio=1.40 / aq=1:1.00
Language                                 : English
Default                                  : No
Forced                                   : No
Color range                              : Limited
Matrix coefficients                      : BT.709

Audio
ID                                       : 2
Format                                   : DTS
Format/Info                              : Digital Theater Systems
Mode                                     : 16
Format settings, Endianness              : Big
Codec ID                                 : A_DTS
Duration                                 : 1h 28mn
Bit rate mode                            : Constant
Bit rate                                 : 1 509 Kbps
Channel(s)                               : 6 channels
Channel positions                        : Front: L C R, Side: L R, LFE
Sampling rate                            : 48.0 KHz
Frame rate                               : 93.750 fps (512 spf)
Bit depth                                : 24 bits
Compression mode                         : Lossy
Stream size                              : 958 MiB (14%)
Language                                 : English
Default                                  : Yes
Forced                                   : No






       

本帖子中包含更多资源

您需要 登录 才可以下载或查看,没有帐号?立即注册  

x

发表于 2016-8-1 07:18:00 | 显示全部楼层



这片子要是有国配就好了

发表回复

您需要登录后才可以回帖 登录 | 立即注册  

本版积分规则

无觅相关文章插件

快速回复 返回顶部 返回列表