返回列表 发新帖

[BD-Rip] [BT下载]哈姆雷特 Hamlet.2009.1080p.BluRay.x264.DTS-FGT 14.23G

[复制链接]

发表在  2016-7-31 11:27:08 | 显示全部楼层 | 阅读模式
-->
◎译  名 哈姆雷特
◎片  名 Hamlet
◎年  代 2009
◎国  家 英国/日本/美国
◎类  别 剧情
◎语  言 英语
◎上映日期 2009-12-26(英国)
◎IMDb评分  8.3/10 from 2,342 users
◎IMDb链接  http://www.imdb.com/title/tt1449175/
◎豆瓣评分 8.4/10 from 1,627 users
◎豆瓣链接 https://movie.douban.com/subject/3931832/
◎BT之家整理 http://www.btbbt.cc
◎片  长 180分钟
◎导  演 Gregory Doran
◎主  演 大卫·田纳特 David Tennant
      帕特里克·斯图尔特 Patrick Stewart
      Penny Downie
      奥利弗·福德·戴维斯 Oliver Ford Davies
      玛丽亚·盖尔 Mariah Gale
      Edward Bennett
      Peter De Jersey
      山姆亚历山大 Sam Alexander
      Tom Davey
      Mark Hadfield
      约翰·伍德温 John Woodvine
      瑞安·盖奇 Ryan Gage
      Samuel Dutton
      Jim Hooper
      大卫·阿贾拉 David Ajala


◎简  介


  《哈姆雷特》是由RSC首席副导演Gregory Doran亲自担任导演,对莎士比亚经典作品《哈姆雷特》重新演绎,大卫·田纳特、帕特里克·斯图尔特参加演出。该剧讲述了忧郁的王子,黑暗的宫廷,痛苦的复仇,忧伤的爱情,无常的命运,注定的死亡。


Video
ID                                       : 1
Format                                   : AVC
Format/Info                              : Advanced Video Codec
Format profile                           : High@L4.1
Format settings, CABAC                   : Yes
Format settings, ReFrames                : 4 frames
Codec ID                                 : V_MPEG4/ISO/AVC
Duration                                 : 3h 2mn
Bit rate                                 : 9 646 Kbps
Width                                    : 1 920 pixels
Height                                   : 1 080 pixels
Display aspect ratio                     : 16:9
Frame rate mode                          : Constant
Frame rate                               : 29.970 (30000/1001) fps
Color space                              : YUV
Chroma subsampling                       : 4:2:0
Bit depth                                : 8 bits
Scan type                                : Progressive
Bits/(Pixel*Frame)                       : 0.155
Stream size                              : 12.0 GiB (84%)
Writing library                          : x264 core 98 r1649 c54c47d
Encoding settings                        : cabac=1 / ref=4 / deblock=1:-1:-1 / analyse=0x3:0x113 / me=umh / subme=7 / psy=1 / psy_rd=1.00:0.00 / mixed_ref=1 / me_range=16 / chroma_me=1 / trellis=1 / 8x8dct=1 / cqm=0 / deadzone=21,11 / fast_pskip=1 / chroma_qp_offset=-2 / threads=12 / sliced_threads=0 / nr=0 / decimate=1 / interlaced=0 / constrained_intra=0 / bframes=3 / b_pyramid=2 / b_adapt=2 / b_bias=0 / direct=3 / weightb=1 / weightp=2 / keyint=250 / keyint_min=25 / scenecut=40 / intra_refresh=0 / rc_lookahead=40 / rc=2pass / mbtree=1 / bitrate=9646 / ratetol=1.0 / qcomp=0.60 / qpmin=10 / qpmax=51 / qpstep=4 / cplxblur=20.0 / qblur=0.5 / vbv_maxrate=50000 / vbv_bufsize=50000 / ip_ratio=1.40 / aq=1:1.00 / nal_hrd=none
Language                                 : English
Default                                  : Yes
Forced                                   : Yes

Audio
ID                                       : 2
Format                                   : DTS
Format/Info                              : Digital Theater Systems
Mode                                     : 16
Format settings, Endianness              : Big
Codec ID                                 : A_DTS
Duration                                 : 3h 2mn
Bit rate mode                            : Constant
Bit rate                                 : 1 510 Kbps
Channel(s)                               : 2 channels
Channel positions                        : Front: L R
Sampling rate                            : 48.0 KHz
Frame rate                               : 93.750 fps (512 spf)
Bit depth                                : 24 bits
Compression mode                         : Lossy
Stream size                              : 1.92 GiB (14%)
Language                                 : English
Default                                  : Yes
Forced                                   : No

Text #1
ID                                       : 3
Format                                   : UTF-8
Codec ID                                 : S_TEXT/UTF8
Codec ID/Info                            : UTF-8 Plain Text
Language                                 : English
Default                                  : No
Forced                                   : No

Text #2
ID                                       : 4
Format                                   : UTF-8
Codec ID                                 : S_TEXT/UTF8
Codec ID/Info                            : UTF-8 Plain Text
Title                                    : SDH
Language                                 : English
Default                                  : No
Forced                                   : No

Menu
00:00:00.000                             : en:00:00:00.000
00:06:46.840                             : en:00:06:46.840
00:16:52.245                             : en:00:16:52.245
00:20:40.372                             : en:00:20:40.372
00:28:12.824                             : en:00:28:12.824
00:37:40.358                             : en:00:37:40.358
00:49:00.437                             : en:00:49:00.437
00:57:39.222                             : en:00:57:39.222
01:08:06.182                             : en:01:08:06.182
01:16:54.810                             : en:01:16:54.810
01:26:22.411                             : en:01:26:22.411
01:28:17.592                             : en:01:28:17.592
01:40:44.839                             : en:01:40:44.839
01:53:52.225                             : en:01:53:52.225
02:05:56.716                             : en:02:05:56.716
02:15:01.994                             : en:02:15:01.994
02:27:04.382                             : en:02:27:04.382
02:34:46.944                             : en:02:34:46.944
02:41:37.688                             : en:02:41:37.688
02:52:18.828                             : en:02:52:18.828





       

本帖子中包含更多资源

您需要 登录 才可以下载或查看,没有帐号?立即注册  

x

发表回复

您需要登录后才可以回帖 登录 | 立即注册  

本版积分规则

无觅相关文章插件

快速回复 返回顶部 返回列表