返回列表 发新帖

[BD-Rip] [BT下载]捉放爱/抓放爱/捉与放 Catch.and.Release.2006.1080p.BluRay.x264-VOA 7.95G

[复制链接]

发表在  2016-7-31 12:42:17 | 显示全部楼层 | 阅读模式
-->
◎译  名 捉放爱/抓放爱/捉与放
◎片  名 Catch and Release
◎年  代 2006
◎国  家 美国
◎类  别 喜剧/剧情/爱情
◎语  言 英语
◎上映日期 2006-10-20
◎IMDb评分  6.0/10 from 18,626 users
◎IMDb链接  http://www.imdb.com/title/tt0395495/
◎豆瓣评分 6.6/10 from 1,262 users
◎豆瓣链接 https://movie.douban.com/subject/1870683/
◎BT之家整理 http://www.btbbt.cc
◎片  长 USA: 124 分钟/Argentina: 124 分钟/USA: 112 分钟(cable version: Encore channel)
◎导  演 苏珊娜·格兰特 Susannah Grant
◎主  演 詹妮弗·加纳 Jennifer Garner
      蒂莫西·奥利芬特 Timothy Olyphant
      朱丽叶特·刘易斯 Juliette Lewis
      山姆·贾格 Sam Jaeger


◎简  介


  未婚夫的意外死亡让格蕾(珍妮弗·加纳 Jennifer Garner 饰)陷入了痛苦的深渊之中,除了取消了近在眼前的婚礼之外,她还不得不搬出那幢她和未婚夫共同拥有的豪宅。天无绝人之路,在好友山姆(凯文·史密斯 Kevin Smith 饰)和丹尼斯(山姆·贾格 Sam Jaeger 饰)的帮助之下,格蕾总算是找到了容身之所,可事情并没有因此而结束。
  一次偶然中,格蕾发现了未婚夫隐藏多年的秘密,格蕾质问未婚夫的好友弗雷特兹(蒂莫西·奥利芬特 Timothy Olyphant 饰)才知道,原来,未婚夫和一个名叫莫琳(朱丽叶特·刘易斯 Juliette Lewis 饰)的女人有过一段露水情缘,留下了一个如今已经七岁的孩子。然而,当格蕾亲眼见到了莫林和她的孩子时才发现,她又一次的陷入了谎言之中。



Video
ID                                       : 1
Format                                   : AVC
Format/Info                              : Advanced Video Codec
Format profile                           : High@L4
Format settings, CABAC                   : Yes
Format settings, ReFrames                : 5 frames
Codec ID                                 : V_MPEG4/ISO/AVC
Duration                                 : 1h 51mn
Bit rate                                 : 8 680 Kbps
Width                                    : 1 920 pixels
Height                                   : 800 pixels
Display aspect ratio                     : 2.40:1
Frame rate mode                          : Constant
Frame rate                               : 23.976 fps
Color space                              : YUV
Chroma subsampling                       : 4:2:0
Bit depth                                : 8 bits
Scan type                                : Progressive
Bits/(Pixel*Frame)                       : 0.236
Stream size                              : 6.61 GiB (83%)
Writing library                          : x264 core 61 r951M 445d87e
Encoding settings                        : cabac=1 / ref=5 / deblock=0:0:0 / analyse=0x3:0x2 / me=hex / subme=6 / psy_rd=1.0:1.0 / brdo=0 / mixed_ref=1 / me_range=16 / chroma_me=1 / trellis=1 / 8x8dct=1 / cqm=0 / deadzone=21,11 / chroma_qp_offset=-4 / threads=6 / nr=0 / decimate=1 / mbaff=0 / bframes=3 / b_pyramid=1 / b_adapt=1 / b_bias=0 / direct=3 / wpredb=1 / bime=1 / keyint=150 / keyint_min=25 / scenecut=40(pre) / rc=2pass / bitrate=8680 / ratetol=1.0 / rceq=\'blurCplx^(1-qComp)\' / qcomp=1.00 / qpmin=10 / qpmax=51 / qpstep=4 / cplxblur=20.0 / qblur=0.5 / ip_ratio=1.40 / pb_ratio=1.30 / aq=2:1.00
Language                                 : English
Default                                  : Yes
Forced                                   : No

Audio
ID                                       : 2
Format                                   : DTS
Format/Info                              : Digital Theater Systems
Mode                                     : 16
Format settings, Endianness              : Big
Codec ID                                 : A_DTS
Duration                                 : 1h 51mn
Bit rate mode                            : Constant
Bit rate                                 : 1 510 Kbps
Channel(s)                               : 6 channels
Channel positions                        : Front: L C R, Side: L R, LFE
Sampling rate                            : 48.0 KHz
Frame rate                               : 93.750 fps (512 spf)
Bit depth                                : 24 bits
Compression mode                         : Lossy
Stream size                              : 1.18 GiB (15%)
Language                                 : English
Default                                  : Yes
Forced                                   : No




       

本帖子中包含更多资源

您需要 登录 才可以下载或查看,没有帐号?立即注册  

x

发表回复

您需要登录后才可以回帖 登录 | 立即注册  

本版积分规则

无觅相关文章插件

快速回复 返回顶部 返回列表