返回列表 发新帖

[BD-Rip] [BT下载]7夜的黑暗 7.Nights.of.Darkness.2011.1080p.BluRay.x264.DD2.0-FGT 5.6G

[复制链接]

发表在  2016-7-31 11:26:25 | 显示全部楼层 | 阅读模式
-->
◎译  名 7夜的黑暗
◎片  名 7 Nights of Darkness
◎年  代 2011
◎国  家 美国
◎类  别 恐怖
◎语  言 英语
◎IMDb评分  4.0/10 from 778 users
◎IMDb链接  http://www.imdb.com/title/tt2072029/
◎BT之家整理 http://www.btbbt.cc
◎片  长 90min
◎导  演 Allen Kellogg


◎简  介


  On April 30| 2010| six reality television show contestants spent seven nights in an abandoned and haunted asylum. The show never aired but an editor for the network
was able to piece together some footage. The prize for staying all seven nights was a share of one million dollars that was to be split amongst any contestants that
didn't leave. No prize money was ever awarded.


Video
ID                                       : 1
Format                                   : AVC
Format/Info                              : Advanced Video Codec
Format profile                           : High@L4.1
Format settings, CABAC                   : Yes
Format settings, ReFrames                : 4 frames
Codec ID                                 : V_MPEG4/ISO/AVC
Duration                                 : 1h 30mn
Bit rate                                 : 8 228 Kbps
Width                                    : 1 920 pixels
Height                                   : 1 080 pixels
Display aspect ratio                     : 16:9
Frame rate mode                          : Constant
Frame rate                               : 29.970 (30000/1001) fps
Original frame rate                      : 29.970 (29970/1000) fps
Color space                              : YUV
Chroma subsampling                       : 4:2:0
Bit depth                                : 8 bits
Scan type                                : Progressive
Bits/(Pixel*Frame)                       : 0.132
Stream size                              : 5.09 GiB (91%)
Writing library                          : x264 core 135 r2345 f0c1c53
Encoding settings                        : cabac=1 / ref=4 / deblock=1:-3:-3 / analyse=0x3:0x113 / me=umh / subme=7 / psy=1 / psy_rd=1.00:0.00 / mixed_ref=1 / me_range=16 / chroma_me=1 / trellis=1 / 8x8dct=1 / cqm=0 / deadzone=21,11 / fast_pskip=0 / chroma_qp_offset=-2 / threads=10 / lookahead_threads=1 / sliced_threads=0 / nr=0 / decimate=1 / interlaced=0 / bluray_compat=0 / constrained_intra=0 / bframes=3 / b_pyramid=2 / b_adapt=1 / b_bias=0 / direct=3 / weightb=1 / open_gop=0 / weightp=2 / keyint=250 / keyint_min=25 / scenecut=40 / intra_refresh=0 / rc_lookahead=40 / rc=2pass / mbtree=1 / bitrate=8228 / ratetol=1.0 / qcomp=0.60 / qpmin=0 / qpmax=69 / qpstep=4 / cplxblur=20.0 / qblur=0.5 / ip_ratio=1.40 / aq=1:1.00
Default                                  : Yes
Forced                                   : No

Audio
ID                                       : 2
Format                                   : AC-3
Format/Info                              : Audio Coding 3
Mode extension                           : CM (complete main)
Format settings, Endianness              : Big
Codec ID                                 : A_AC3
Duration                                 : 1h 30mn
Bit rate mode                            : Constant
Bit rate                                 : 640 Kbps
Channel(s)                               : 2 channels
Channel positions                        : Front: L R
Sampling rate                            : 48.0 KHz
Frame rate                               : 31.250 fps (1536 spf)
Compression mode                         : Lossy
Stream size                              : 414 MiB (7%)
Language                                 : English
Default                                  : No
Forced                                   : No





       

本帖子中包含更多资源

您需要 登录 才可以下载或查看,没有帐号?立即注册  

x

发表回复

您需要登录后才可以回帖 登录 | 立即注册  

本版积分规则

无觅相关文章插件

快速回复 返回顶部 返回列表