返回列表 发新帖

[BD-Rip] [BT下载]霍金斯将军传 The.Eternal.Sea.1955.1080p.BluRay.x264.DTS-FGT 12.47G

[复制链接]

发表在  2016-8-1 00:08:16 | 显示全部楼层 | 阅读模式
-->
◎译  名 霍金斯将军传
◎片  名 The Eternal Sea
◎年  代 1955
◎国  家 美国
◎类  别 战争/剧情
◎语  言 英语
◎上映日期 1955-05-05
◎IMDb评分  6.6/10 from 119 users
◎IMDb链接  http://www.imdb.com/title/tt0048047/
◎BT之家整理 http://www.btbbt.cc
◎片  长 103 分钟
◎导  演 约翰 H. 奥尔 (John H. Auer)


◎简  介


  美国海军上将约翰·M· 霍斯金斯(John Madison Hoskins,1898.10.22-1964.3.27)传奇的一生。霍斯金斯将军大学毕业后,加入美军海军,成为一名飞行员,尽管在一次训练中因飞机失事失去了一条腿,但经过一段消沉后,他很快振作起来,经过不懈的努力,第二次世界大战爆发后,他又重新回到海军服役,二战胜利后,因战功显赫被授予海军十字勋章。



Video
ID                                       : 1
Format                                   : AVC
Format/Info                              : Advanced Video Codec
Format profile                           : High@L4.1
Format settings, CABAC                   : Yes
Format settings, ReFrames                : 4 frames
Codec ID                                 : V_MPEG4/ISO/AVC
Duration                                 : 1h 43mn
Bit rate                                 : 15.5 Mbps
Width                                    : 1 792 pixels
Height                                   : 1 080 pixels
Display aspect ratio                     : 5:3
Frame rate mode                          : Constant
Frame rate                               : 23.976 (24000/1001) fps
Color space                              : YUV
Chroma subsampling                       : 4:2:0
Bit depth                                : 8 bits
Scan type                                : Progressive
Bits/(Pixel*Frame)                       : 0.333
Stream size                              : 11.1 GiB (89%)
Writing library                          : x264 core 146 r2538 121396c
Encoding settings                        : cabac=1 / ref=4 / deblock=1:-3:-3 / analyse=0x3:0x113 / me=umh / subme=10 / psy=1 / psy_rd=1.00:0.15 / mixed_ref=1 / me_range=32 / chroma_me=1 / trellis=2 / 8x8dct=1 / cqm=0 / deadzone=21,11 / fast_pskip=1 / chroma_qp_offset=-3 / threads=6 / lookahead_threads=1 / sliced_threads=0 / nr=0 / decimate=1 / interlaced=0 / bluray_compat=0 / constrained_intra=0 / bframes=8 / b_pyramid=2 / b_adapt=2 / b_bias=0 / direct=1 / weightb=1 / open_gop=0 / weightp=2 / keyint=230 / keyint_min=23 / scenecut=40 / intra_refresh=0 / rc_lookahead=40 / rc=crf / mbtree=0 / crf=22.8 / qcomp=0.60 / qpmin=0 / qpmax=69 / qpstep=4 / vbv_maxrate=40000 / vbv_bufsize=50000 / crf_max=0.0 / nal_hrd=none / filler=0 / ip_ratio=1.40 / pb_ratio=1.30 / aq=1:1.00
Language                                 : English
Default                                  : Yes
Forced                                   : No

Audio
ID                                       : 2
Format                                   : DTS
Format/Info                              : Digital Theater Systems
Mode                                     : 16
Format settings, Endianness              : Big
Codec ID                                 : A_DTS
Duration                                 : 1h 43mn
Bit rate mode                            : Constant
Bit rate                                 : 1 509 Kbps
Channel(s)                               : 2 channels
Channel positions                        : Front: L R
Sampling rate                            : 48.0 KHz
Frame rate                               : 93.750 fps (512 spf)
Bit depth                                : 24 bits
Compression mode                         : Lossy
Stream size                              : 1.09 GiB (9%)
Language                                 : English
Default                                  : No
Forced                                   : No





       

本帖子中包含更多资源

您需要 登录 才可以下载或查看,没有帐号?立即注册  

x

发表回复

您需要登录后才可以回帖 登录 | 立即注册  

本版积分规则

无觅相关文章插件

快速回复 返回顶部 返回列表