返回列表 发新帖

[BD-Rip] [BT下载]狂暴周一 Stormy.Monday.1988.1080p.BluRay.x264.DD2.0-FGT 10.37G

[复制链接]

发表在  2016-7-31 23:22:15 | 显示全部楼层 | 阅读模式
-->
◎译  名 狂暴周一
◎片  名 Stormy Monday
◎年  代 1988
◎国  家 英国/美国
◎类  别 犯罪/剧情/音乐/爱情
◎语  言 英语/波兰语
◎上映日期 1988-04-22
◎IMDb评分  6.3/10 from 2,691 users
◎IMDb链接  http://www.imdb.com/title/tt0096180/
◎豆瓣评分 7.2/10 from 10 users
◎豆瓣链接 https://movie.douban.com/subject/1963856/
◎BT之家整理 http://www.btbbt.cc
◎片  长 93 分钟
◎导  演 Mike Figgis
◎主  演 梅兰尼·格里菲斯 Melanie Griffith
      汤米·李·琼斯 Tommy Lee Jones
      斯汀 Sting
      肖恩·宾 Sean Bean


◎简  介


  商人弗兰克在到达英国的纽卡斯尔后,决定大力着手于他的生意,并且想把整个城市控制在自己手中,凯特是他雇来的美女,用来收买当地的高官……


Video
ID                                       : 1
Format                                   : AVC
Format/Info                              : Advanced Video Codec
Format profile                           : High@L4.1
Format settings, CABAC                   : Yes
Format settings, ReFrames                : 4 frames
Codec ID                                 : V_MPEG4/ISO/AVC
Duration                                 : 1h 32mn
Bit rate                                 : 15.6 Mbps
Width                                    : 1 920 pixels
Height                                   : 1 040 pixels
Display aspect ratio                     : 1.85:1
Frame rate mode                          : Constant
Frame rate                               : 24.000 fps
Color space                              : YUV
Chroma subsampling                       : 4:2:0
Bit depth                                : 8 bits
Scan type                                : Progressive
Bits/(Pixel*Frame)                       : 0.325
Stream size                              : 9.87 GiB (95%)
Writing library                          : x264 core 112
Encoding settings                        : cabac=1 / ref=4 / deblock=1:-3:-3 / analyse=0x3:0x113 / me=umh / subme=7 / psy=1 / psy_rd=1.00:0.00 / mixed_ref=1 / me_range=32 / chroma_me=1 / trellis=1 / 8x8dct=1 / cqm=0 / deadzone=21,11 / fast_pskip=1 / chroma_qp_offset=-2 / threads=12 / sliced_threads=0 / nr=0 / decimate=1 / interlaced=0 / constrained_intra=0 / bframes=3 / b_pyramid=2 / b_adapt=2 / b_bias=0 / direct=1 / weightb=1 / open_gop=0 / weightp=2 / keyint=240 / keyint_min=24 / scenecut=40 / intra_refresh=0 / rc_lookahead=50 / rc=2pass / mbtree=1 / bitrate=15552 / ratetol=1.0 / qcomp=0.60 / qpmin=3 / qpmax=51 / qpstep=4 / cplxblur=20.0 / qblur=0.5 / ip_ratio=1.40 / aq=1:1.00
Default                                  : Yes
Forced                                   : No
Color range                              : Limited
Color primaries                          : BT.709
Transfer characteristics                 : BT.709
Matrix coefficients                      : BT.709

Audio
ID                                       : 2
Format                                   : AC-3
Format/Info                              : Audio Coding 3
Format profile                           : Dolby Digital
Mode extension                           : CM (complete main)
Format settings, Endianness              : Big
Codec ID                                 : A_AC3
Duration                                 : 1h 32mn
Bit rate mode                            : Constant
Bit rate                                 : 448 Kbps
Channel(s)                               : 2 channels
Channel positions                        : Front: L R
Sampling rate                            : 48.0 KHz
Frame rate                               : 31.250 fps (1536 spf)
Compression mode                         : Lossy
Stream size                              : 297 MiB (3%)
Language                                 : English
Default                                  : No
Forced                                   : No

Text
ID                                       : 3
Format                                   : UTF-8
Codec ID                                 : S_TEXT/UTF8
Codec ID/Info                            : UTF-8 Plain Text
Language                                 : English
Default                                  : No
Forced                                   : No






       

本帖子中包含更多资源

您需要 登录 才可以下载或查看,没有帐号?立即注册  

x

发表回复

您需要登录后才可以回帖 登录 | 立即注册  

本版积分规则

无觅相关文章插件

快速回复 返回顶部 返回列表