返回列表 发新帖

[BD-Rip] [BT下载]黑暗中的王子 Dracula.Prince.Of.Darkness.1966.1080p.BluRay.x264.DD2.0-FGT 6.56G

[复制链接]

发表在  2016-7-31 23:49:25 | 显示全部楼层 | 阅读模式
-->
◎译  名 黑暗中的王子
◎片  名 Dracula: Prince of Darkness
◎年  代 1966
◎国  家 英国
◎类  别 恐怖
◎语  言 英语
◎上映日期 1966-01-09
◎IMDb评分  6.7/10 from 6,492 users
◎IMDb链接  http://www.imdb.com/title/tt0059127/
◎豆瓣评分 6.5/10 from 39 users
◎豆瓣链接 https://movie.douban.com/subject/1998217/
◎BT之家整理 http://www.btbbt.cc
◎片  长 90 分钟/Spain: 86 分钟(DVD edition)
◎导  演 泰伦斯·费希 Terence Fisher
◎主  演 克里斯托弗·李 Christopher Lee
      Barbara Shelley
      Andrew Keir


◎简  介


  一个名叫丹尼·诺能(Danny Noonen)的年轻人,为了赚点钱来贴补家用和上大学,到一家高尔夫球俱乐部当球童的故事。情节并不复杂,但却笑料百出。尤其是由比尔·穆利(Bill Murrey)饰演的园丁卡尔(Carl)。这是个有点歇斯底里的老兵,他声称曾与西藏喇嘛(Dalai Lama)打过一年半的交道。片中,他一直试图用塑料炸药来消灭讨厌的田鼠。当卡尔为了消灭几只小老鼠而亲手毁掉了自己的花园时,那种浑然不觉、沾沾自喜的表情更是令人忍俊不禁。难怪这部影片受到了如此广泛的欢迎。



Video
ID                                       : 1
Format                                   : AVC
Format/Info                              : Advanced Video Codec
Format profile                           : High@L4.1
Format settings, CABAC                   : Yes
Format settings, ReFrames                : 4 frames
Codec ID                                 : V_MPEG4/ISO/AVC
Duration                                 : 1h 30mn
Bit rate                                 : 10.1 Mbps
Width                                    : 1 920 pixels
Height                                   : 812 pixels
Display aspect ratio                     : 2.35:1
Frame rate mode                          : Constant
Frame rate                               : 24.000 fps
Color space                              : YUV
Chroma subsampling                       : 4:2:0
Bit depth                                : 8 bits
Scan type                                : Progressive
Bits/(Pixel*Frame)                       : 0.269
Stream size                              : 6.19 GiB (94%)
Writing library                          : x264 core 122 r2183 c522ad1
Encoding settings                        : cabac=1 / ref=4 / deblock=1:-2:-2 / analyse=0x3:0x113 / me=umh / subme=10 / psy=1 / psy_rd=1.20:0.20 / mixed_ref=1 / me_range=32 / chroma_me=1 / trellis=2 / 8x8dct=1 / cqm=0 / deadzone=21,11 / fast_pskip=0 / chroma_qp_offset=-3 / threads=6 / sliced_threads=0 / nr=0 / decimate=0 / interlaced=0 / bluray_compat=0 / constrained_intra=0 / bframes=5 / b_pyramid=2 / b_adapt=2 / b_bias=0 / direct=3 / weightb=1 / open_gop=0 / weightp=2 / keyint=240 / keyint_min=1 / scenecut=40 / intra_refresh=0 / rc_lookahead=72 / rc=2pass / mbtree=1 / bitrate=10056 / ratetol=1.0 / qcomp=0.60 / qpmin=10 / qpmax=51 / qpstep=4 / cplxblur=20.0 / qblur=0.5 / vbv_maxrate=38000 / vbv_bufsize=38000 / nal_hrd=none / ip_ratio=1.40 / aq=1:1.00
Language                                 : English
Default                                  : Yes
Forced                                   : No

Audio
ID                                       : 2
Format                                   : AC-3
Format/Info                              : Audio Coding 3
Mode extension                           : CM (complete main)
Format settings, Endianness              : Big
Codec ID                                 : A_AC3
Duration                                 : 1h 30mn
Bit rate mode                            : Constant
Bit rate                                 : 384 Kbps
Channel(s)                               : 2 channels
Channel positions                        : Front: L R
Sampling rate                            : 48.0 KHz
Frame rate                               : 31.250 fps (1536 spf)
Compression mode                         : Lossy
Stream size                              : 248 MiB (4%)
Language                                 : English
Default                                  : No
Forced                                   : No

Text
ID                                       : 3
Format                                   : UTF-8
Codec ID                                 : S_TEXT/UTF8
Codec ID/Info                            : UTF-8 Plain Text
Language                                 : English
Default                                  : No
Forced                                   : No

Menu
00:00:00.000                             : en:A Burial
00:08:06.000                             : en:A Warning
00:16:03.000                             : en:An Invitation
00:23:55.000                             : en:The Castle
00:31:46.000                             : en:A Strange Night
00:40:39.500                             : en:Sacrifice
00:49:28.000                             : en:Trapped
00:58:33.000                             : en:Escape
01:06:39.000                             : en:Revenge
01:13:29.000                             : en:Capture
01:20:15.000                             : en:Bait
01:29:13.000                             : en:End Credits








       

本帖子中包含更多资源

您需要 登录 才可以下载或查看,没有帐号?立即注册  

x

发表回复

您需要登录后才可以回帖 登录 | 立即注册  

本版积分规则

无觅相关文章插件

快速回复 返回顶部 返回列表