返回列表 发新帖

[上下格式] [BT下载]愤怒的小鸟[3D上下]2016.1080p.3D.BluRay.Half-OU.x264.DTS-HD.MA.7.1-RARBG 20G

[复制链接]

发表在  2016-8-1 01:31:41 | 显示全部楼层 | 阅读模式
-->
自带中字

◎译  名 愤怒的小鸟/愤怒鸟大电影(港)/愤怒鸟玩电影(台)/愤怒的小鸟大电影
◎片  名 The Angry Birds Movie
◎年  代 2016
◎国  家 芬兰/美国
◎类  别 喜剧/动作/动画
◎语  言 英语
◎上映日期 2016-05-20(中国大陆/美国)/2016-05-13(芬兰)
◎IMDb评分  6.3/10 from 20,497 users
◎IMDb链接  http://www.imdb.com/title/tt1985949/
◎豆瓣评分 7.2/10 from 41,858 users
◎豆瓣链接 https://movie.douban.com/subject/6873736/
◎BT之家整理 http://www.btbbt.cc
◎片  长 97分钟
◎导  演 费格尔·雷利 Fergal Reilly / 克雷·卡提斯 Clay Kaytis
◎主  演 杰森·苏戴奇斯 Jason Sudeikis
      乔什·盖德 Josh Gad
      丹尼·麦克布耐德 Danny McBride
      玛娅·鲁道夫 Maya Rudolph
      西恩·潘 Sean Penn
      凯特·麦克金农 Kate McKinnon
      彼特·丁拉基 Peter Dinklage
      比尔·哈德尔 Bill Hader
      托尼·海尔 Tony Hale
      丹尼尔·布鲁克斯 Danielle Brooks
      吉莉恩·贝尔 Jillian Bell
      科甘·迈克尔·基 Keegan Michael Key
      伊克·巴里霍尔兹 Ike Barinholtz
      吉奥弗瑞·阿伦德 Geoffrey Arend
      麦克斯·查尔斯 Max Charles
      布莱克·谢尔顿 Blake Shelton
      泰塔斯·伯吉斯 Tituss Burgess
      汉尼拔·布勒斯 Hannibal Buress
      克里斯黛拉·阿朗索 Cristela Alonzo
      安东尼·帕迪利亚 Anthony Padilla
      比利·艾希纳 Billy Eichner


◎简  介


  一群不会飞的小鸟,挤在一座热带小岛上,和睦宁静。游戏中的几个经典形象成了影片的主角,分别是易怒的胖红(杰森·苏戴奇斯 Jason Sudeikis 配音),飞镖黄(乔什·加德 Josh Gad 配音)和炸弹黑(丹尼·麦克布耐德 Danny McBride 配音) 。当神秘的绿猪莱纳德(比尔·哈德尔 Bill Hader 配音)登陆岛屿时,小鸟们平静的生活被打破了。




Video
ID                                       : 1
Format                                   : AVC
Format/Info                              : Advanced Video Codec
Format profile                           : High@L4.1
Format settings, CABAC                   : Yes
Format settings, ReFrames                : 2 frames
Codec ID                                 : V_MPEG4/ISO/AVC
Duration                                 : 1h 37mn
Nominal bit rate                         : 16.0 Mbps
Width                                    : 1 920 pixels
Height                                   : 1 080 pixels
Display aspect ratio                     : 16:9
Frame rate mode                          : Constant
Frame rate                               : 23.976 (24000/1001) fps
Color space                              : YUV
Chroma subsampling                       : 4:2:0
Bit depth                                : 8 bits
Scan type                                : Progressive
Bits/(Pixel*Frame)                       : 0.322
Title                                    : The.Angry.Birds.Movie.2016.1080p.3D.BluRay.Half-OU.x264.DTS-HD.MA.7.1-RARBG
Writing library                          : x264 core 142
Encoding settings                        : cabac=1 / ref=1 / deblock=1:-1:-1 / analyse=0x3:0 / me=hex / subme=5 / psy=0 / mixed_ref=0 / me_range=16 / chroma_me=1 / trellis=0 / 8x8dct=1 / cqm=0 / deadzone=21,11 / fast_pskip=0 / chroma_qp_offset=0 / threads=8 / lookahead_threads=2 / sliced_threads=0 / nr=0 / decimate=1 / interlaced=0 / bluray_compat=0 / constrained_intra=0 / bframes=2 / b_pyramid=0 / b_adapt=1 / b_bias=0 / direct=1 / weightb=0 / open_gop=0 / weightp=0 / keyint=24 / keyint_min=13 / scenecut=40 / intra_refresh=0 / rc=abr / mbtree=0 / bitrate=16000 / ratetol=1.0 / qcomp=0.60 / qpmin=0 / qpmax=69 / qpstep=4 / ip_ratio=1.40 / pb_ratio=1.30 / aq=1:1.00
Default                                  : Yes
Forced                                   : No
Color range                              : Limited
Color primaries                          : BT.709
Transfer characteristics                 : BT.709
Matrix coefficients                      : BT.709


Audio #1
ID                                       : 2
Format                                   : DTS
Format/Info                              : Digital Theater Systems
Format profile                           : MA / Core
Mode                                     : 16
Format settings, Endianness              : Big
Codec ID                                 : A_DTS
Duration                                 : 1h 37mn
Bit rate mode                            : Variable / Constant
Bit rate                                 : Unknown / 1 509 Kbps
Channel(s)                               : 8 channels / 6 channels
Channel positions                        : Front: L C R, Side: L R, Back: L R, LFE / Front: L C R, Side: L R, LFE
Sampling rate                            : 48.0 KHz
Frame rate                               : 93.750 fps (512 spf)
Bit depth                                : 16 bits
Compression mode                         : Lossless / Lossy
Title                                    : The.Angry.Birds.Movie.2016.1080p.3D.BluRay.Half-OU.x264.DTS-HD.MA.7.1-RARBG
Language                                 : English
Default                                  : Yes
Forced                                   : No


Audio #2
ID                                       : 3
Format                                   : DTS
Format/Info                              : Digital Theater Systems
Mode                                     : 16
Format settings, Endianness              : Big
Codec ID                                 : A_DTS
Duration                                 : 1h 37mn
Bit rate mode                            : Constant
Bit rate                                 : 1 509 Kbps
Channel(s)                               : 6 channels
Channel positions                        : Front: L C R, Side: L R, LFE
Sampling rate                            : 48.0 KHz
Frame rate                               : 93.750 fps (512 spf)
Bit depth                                : 16 bits
Compression mode                         : Lossy
Stream size                              : 1.02 GiB (5%)
Title                                    : The.Angry.Birds.Movie.2016.1080p.3D.BluRay.Half-OU.x264.DTS-HD.MA.7.1-RARBG
Language                                 : English
Default                                  : No
Forced                                   : No


Audio #3
ID                                       : 4
Format                                   : AC-3
Format/Info                              : Audio Coding 3
Mode extension                           : CM (complete main)
Format settings, Endianness              : Big
Codec ID                                 : A_AC3
Duration                                 : 1h 37mn
Bit rate mode                            : Constant
Bit rate                                 : 640 Kbps
Channel(s)                               : 6 channels
Channel positions                        : Front: L C R, Side: L R, LFE
Sampling rate                            : 48.0 KHz
Frame rate                               : 31.250 fps (1536 spf)
Compression mode                         : Lossy
Stream size                              : 445 MiB (2%)
Title                                    : The.Angry.Birds.Movie.2016.1080p.3D.BluRay.Half-OU.x264.DTS-HD.MA.7.1-RARBG
Language                                 : English
Default                                  : No
Forced                                   : No


Audio #4
ID                                       : 5
Format                                   : AC-3
Format/Info                              : Audio Coding 3
Mode extension                           : CM (complete main)
Format settings, Endianness              : Big
Codec ID                                 : A_AC3
Duration                                 : 1h 37mn
Bit rate mode                            : Constant
Bit rate                                 : 640 Kbps
Channel(s)                               : 6 channels
Channel positions                        : Front: L C R, Side: L R, LFE
Sampling rate                            : 48.0 KHz
Frame rate                               : 31.250 fps (1536 spf)
Compression mode                         : Lossy
Stream size                              : 445 MiB (2%)
Title                                    : The.Angry.Birds.Movie.2016.1080p.3D.BluRay.Half-OU.x264.DTS-HD.MA.7.1-RARBG
Language                                 : Chinese
Default                                  : No
Forced                                   : No


Audio #5
ID                                       : 6
Format                                   : AC-3
Format/Info                              : Audio Coding 3
Mode extension                           : CM (complete main)
Format settings, Endianness              : Big
Codec ID                                 : A_AC3
Duration                                 : 1h 37mn
Bit rate mode                            : Constant
Bit rate                                 : 640 Kbps
Channel(s)                               : 6 channels
Channel positions                        : Front: L C R, Side: L R, LFE
Sampling rate                            : 48.0 KHz
Frame rate                               : 31.250 fps (1536 spf)
Compression mode                         : Lossy
Stream size                              : 445 MiB (2%)
Title                                    : The.Angry.Birds.Movie.2016.1080p.3D.BluRay.Half-OU.x264.DTS-HD.MA.7.1-RARBG
Language                                 : Chinese
Default                                  : No
Forced                                   : No


Audio #6
ID                                       : 7
Format                                   : AC-3
Format/Info                              : Audio Coding 3
Mode extension                           : CM (complete main)
Format settings, Endianness              : Big
Codec ID                                 : A_AC3
Duration                                 : 1h 37mn
Bit rate mode                            : Constant
Bit rate                                 : 640 Kbps
Channel(s)                               : 6 channels
Channel positions                        : Front: L C R, Side: L R, LFE
Sampling rate                            : 48.0 KHz
Frame rate                               : 31.250 fps (1536 spf)
Compression mode                         : Lossy
Stream size                              : 445 MiB (2%)
Title                                    : The.Angry.Birds.Movie.2016.1080p.3D.BluRay.Half-OU.x264.DTS-HD.MA.7.1-RARBG
Language                                 : French
Default                                  : No
Forced                                   : No


Audio #7
ID                                       : 8
Format                                   : AC-3
Format/Info                              : Audio Coding 3
Mode extension                           : CM (complete main)
Format settings, Endianness              : Big
Codec ID                                 : A_AC3
Duration                                 : 1h 37mn
Bit rate mode                            : Constant
Bit rate                                 : 640 Kbps
Channel(s)                               : 6 channels
Channel positions                        : Front: L C R, Side: L R, LFE
Sampling rate                            : 48.0 KHz
Frame rate                               : 31.250 fps (1536 spf)
Compression mode                         : Lossy
Stream size                              : 445 MiB (2%)
Title                                    : The.Angry.Birds.Movie.2016.1080p.3D.BluRay.Half-OU.x264.DTS-HD.MA.7.1-RARBG
Language                                 : Korean
Default                                  : No
Forced                                   : No


Audio #8
ID                                       : 9
Format                                   : DTS
Format/Info                              : Digital Theater Systems
Format profile                           : MA / Core
Mode                                     : 16
Format settings, Endianness              : Big
Codec ID                                 : A_DTS
Duration                                 : 1h 37mn
Bit rate mode                            : Variable / Constant
Bit rate                                 : Unknown / 1 509 Kbps
Channel(s)                               : 6 channels
Channel positions                        : Front: L C R, Side: L R, LFE
Sampling rate                            : 48.0 KHz
Frame rate                               : 93.750 fps (512 spf)
Bit depth                                : 16 bits
Compression mode                         : Lossless / Lossy
Title                                    : The.Angry.Birds.Movie.2016.1080p.3D.BluRay.Half-OU.x264.DTS-HD.MA.7.1-RARBG
Language                                 : Portuguese
Default                                  : No
Forced                                   : No


Audio #9
ID                                       : 10
Format                                   : DTS
Format/Info                              : Digital Theater Systems
Mode                                     : 16
Format settings, Endianness              : Big
Codec ID                                 : A_DTS
Duration                                 : 1h 37mn
Bit rate mode                            : Constant
Bit rate                                 : 1 509 Kbps
Channel(s)                               : 6 channels
Channel positions                        : Front: L C R, Side: L R, LFE
Sampling rate                            : 48.0 KHz
Frame rate                               : 93.750 fps (512 spf)
Bit depth                                : 16 bits
Compression mode                         : Lossy
Stream size                              : 1.02 GiB (5%)
Title                                    : The.Angry.Birds.Movie.2016.1080p.3D.BluRay.Half-OU.x264.DTS-HD.MA.7.1-RARBG
Language                                 : Portuguese
Default                                  : No
Forced                                   : No


Audio #10
ID                                       : 11
Format                                   : AC-3
Format/Info                              : Audio Coding 3
Mode extension                           : CM (complete main)
Format settings, Endianness              : Big
Codec ID                                 : A_AC3
Duration                                 : 1h 37mn
Bit rate mode                            : Constant
Bit rate                                 : 640 Kbps
Channel(s)                               : 6 channels
Channel positions                        : Front: L C R, Side: L R, LFE
Sampling rate                            : 48.0 KHz
Frame rate                               : 31.250 fps (1536 spf)
Compression mode                         : Lossy
Stream size                              : 445 MiB (2%)
Title                                    : The.Angry.Birds.Movie.2016.1080p.3D.BluRay.Half-OU.x264.DTS-HD.MA.7.1-RARBG
Language                                 : Spanish
Default                                  : No
Forced                                   : No


Audio #11
ID                                       : 12
Format                                   : AC-3
Format/Info                              : Audio Coding 3
Mode extension                           : CM (complete main)
Format settings, Endianness              : Big
Codec ID                                 : A_AC3
Duration                                 : 1h 37mn
Bit rate mode                            : Constant
Bit rate                                 : 640 Kbps
Channel(s)                               : 6 channels
Channel positions                        : Front: L C R, Side: L R, LFE
Sampling rate                            : 48.0 KHz
Frame rate                               : 31.250 fps (1536 spf)
Compression mode                         : Lossy
Stream size                              : 445 MiB (2%)
Title                                    : The.Angry.Birds.Movie.2016.1080p.3D.BluRay.Half-OU.x264.DTS-HD.MA.7.1-RARBG
Language                                 : Thai
Default                                  : No
Forced                                   : No


Audio #12
ID                                       : 13
Format                                   : AC-3
Format/Info                              : Audio Coding 3
Mode extension                           : CM (complete main)
Format settings, Endianness              : Big
Codec ID                                 : A_AC3
Duration                                 : 1h 37mn
Bit rate mode                            : Constant
Bit rate                                 : 640 Kbps
Channel(s)                               : 6 channels
Channel positions                        : Front: L C R, Side: L R, LFE
Sampling rate                            : 48.0 KHz
Frame rate                               : 31.250 fps (1536 spf)
Compression mode                         : Lossy
Stream size                              : 445 MiB (2%)
Title                                    : The.Angry.Birds.Movie.2016.1080p.3D.BluRay.Half-OU.x264.DTS-HD.MA.7.1-RARBG
Language                                 : Vietnamese
Default                                  : No
Forced                                   : No


Audio #13
ID                                       : 14
Format                                   : AC-3
Format/Info                              : Audio Coding 3
Mode extension                           : CM (complete main)
Format settings, Endianness              : Big
Codec ID                                 : A_AC3
Duration                                 : 1h 37mn
Bit rate mode                            : Constant
Bit rate                                 : 640 Kbps
Channel(s)                               : 6 channels
Channel positions                        : Front: L C R, Side: L R, LFE
Sampling rate                            : 48.0 KHz
Frame rate                               : 31.250 fps (1536 spf)
Compression mode                         : Lossy
Stream size                              : 445 MiB (2%)
Title                                    : The.Angry.Birds.Movie.2016.1080p.3D.BluRay.Half-OU.x264.DTS-HD.MA.7.1-RARBG
Language                                 : Chinese
Default                                  : No
Forced                                   : No


Text #1
ID                                       : 15
Format                                   : PGS
Muxing mode                              : zlib
Codec ID                                 : S_HDMV/PGS
Codec ID/Info                            : Picture based subtitle format used on BDs/HD-DVDs
Title                                    : English-PGS
Language                                 : English
Default                                  : No
Forced                                   : No


Text #2
ID                                       : 16
Format                                   : PGS
Muxing mode                              : zlib
Codec ID                                 : S_HDMV/PGS
Codec ID/Info                            : Picture based subtitle format used on BDs/HD-DVDs
Title                                    : English-SDH-PGS
Language                                 : English
Default                                  : No
Forced                                   : No


Text #3
ID                                       : 17
Format                                   : PGS
Muxing mode                              : zlib
Codec ID                                 : S_HDMV/PGS
Codec ID/Info                            : Picture based subtitle format used on BDs/HD-DVDs
Title                                    : Chinese-PGS
Language                                 : Chinese
Default                                  : No
Forced                                   : No


Text #4
ID                                       : 18
Format                                   : PGS
Muxing mode                              : zlib
Codec ID                                 : S_HDMV/PGS
Codec ID/Info                            : Picture based subtitle format used on BDs/HD-DVDs
Title                                    : Chinese-PGS
Language                                 : Chinese
Default                                  : No
Forced                                   : No


Text #5
ID                                       : 19
Format                                   : PGS
Muxing mode                              : zlib
Codec ID                                 : S_HDMV/PGS
Codec ID/Info                            : Picture based subtitle format used on BDs/HD-DVDs
Title                                    : Chinese-PGS
Language                                 : Chinese
Default                                  : No
Forced                                   : No


Text #6
ID                                       : 20
Format                                   : PGS
Muxing mode                              : zlib
Codec ID                                 : S_HDMV/PGS
Codec ID/Info                            : Picture based subtitle format used on BDs/HD-DVDs
Title                                    : French-PGS
Language                                 : French
Default                                  : No
Forced                                   : No


Text #7
ID                                       : 21
Format                                   : PGS
Muxing mode                              : zlib
Codec ID                                 : S_HDMV/PGS
Codec ID/Info                            : Picture based subtitle format used on BDs/HD-DVDs
Title                                    : Indonesian-PGS
Language                                 : Indonesian
Default                                  : No
Forced                                   : No


Text #8
ID                                       : 22
Format                                   : PGS
Muxing mode                              : zlib
Codec ID                                 : S_HDMV/PGS
Codec ID/Info                            : Picture based subtitle format used on BDs/HD-DVDs
Title                                    : Korean-PGS
Language                                 : Korean
Default                                  : No
Forced                                   : No


Text #9
ID                                       : 23
Format                                   : PGS
Muxing mode                              : zlib
Codec ID                                 : S_HDMV/PGS
Codec ID/Info                            : Picture based subtitle format used on BDs/HD-DVDs
Title                                    : Portuguese-PGS
Language                                 : Portuguese
Default                                  : No
Forced                                   : No


Text #10
ID                                       : 24
Format                                   : PGS
Muxing mode                              : zlib
Codec ID                                 : S_HDMV/PGS
Codec ID/Info                            : Picture based subtitle format used on BDs/HD-DVDs
Title                                    : Spanish-PGS
Language                                 : Spanish
Default                                  : No
Forced                                   : No


Text #11
ID                                       : 25
Format                                   : PGS
Muxing mode                              : zlib
Codec ID                                 : S_HDMV/PGS
Codec ID/Info                            : Picture based subtitle format used on BDs/HD-DVDs
Title                                    : Thai-PGS
Language                                 : Thai
Default                                  : No
Forced                                   : No


Text #12
ID                                       : 26
Format                                   : PGS
Muxing mode                              : zlib
Codec ID                                 : S_HDMV/PGS
Codec ID/Info                            : Picture based subtitle format used on BDs/HD-DVDs
Title                                    : Vietnamese-PGS
Language                                 : Vietnamese
Default                                  : No
Forced                                   : No


Menu
00:00:00.000                             : en01)00:00:00:000
00:07:05.091                             : en02)00:07:05:091
00:13:38.108                             : en03)00:13:38:108
00:20:22.638                             : en04)00:20:22:638
00:25:38.620                             : en05)00:25:38:620
00:32:57.392                             : en06)00:32:57:392
00:38:34.812                             : en07)00:38:34:812
00:41:36.327                             : en000:41:36:327
00:47:12.955                             : en09)00:47:12:955
00:52:04.287                             : en10)00:52:04:287
00:56:07.697                             : en11)00:56:07:697
00:59:08.711                             : en12)00:59:08:711
01:03:43.319                             : en13)01:03:43:319
01:11:45.801                             : en14)01:11:45:801
01:18:55.522                             : en15)01:18:55:522
01:23:54.821                             : en16)01:23:54:821





       

本帖子中包含更多资源

您需要 登录 才可以下载或查看,没有帐号?立即注册  

x

发表于 2016-8-4 17:32:14 | 显示全部楼层
下来观摩,感谢分享

发表于 2016-8-6 15:45:01 | 显示全部楼层

发表回复

您需要登录后才可以回帖 登录 | 立即注册  

本版积分规则

无觅相关文章插件

快速回复 返回顶部 返回列表