返回列表 发新帖

[BD-Rip] [BT下载]恶灵旅舍 Ghosts.of.Goldfield.2007.1080p.BluRay.x264.DTS-FGT 4.78G

[复制链接]

发表在  2016-7-31 23:43:37 | 显示全部楼层 | 阅读模式
-->
◎译  名 恶灵旅舍(台)
◎片  名 Ghosts of Goldfield
◎年  代 2007
◎国  家 美国
◎类  别 恐怖
◎语  言 英语
◎上映日期 2007-03-27
◎IMDb评分  3.1/10 from 560 users
◎IMDb链接  http://www.imdb.com/title/tt0494228/
◎BT之家整理 http://www.btbbt.cc
◎片  长 88 分钟
◎导  演 Ed Winfield
◎主  演 Kellan Lutz
      Marnette Patterson
      Roddy Piper
      Mandy Amano
      Scott Whyte


◎简  介


  A group of five led by Julie set up their filming equipment in the hotel of the derelict town of Goldfield| hoping to capture footage of the ghost of Elisabeth
Walker| a maid tortured and killed in room 109. Troubled by visions| Julie discovers that a necklace| handed down to her from her grandmother| is somehow connecting
her to this tragedy.


Video
ID                                       : 1
Format                                   : AVC
Format/Info                              : Advanced Video Codec
Format profile                           : High@L4.1
Format settings, CABAC                   : Yes
Format settings, ReFrames                : 4 frames
Codec ID                                 : V_MPEG4/ISO/AVC
Duration                                 : 1h 23mn
Bit rate                                 : 7 815 Kbps
Width                                    : 1 920 pixels
Height                                   : 1 040 pixels
Display aspect ratio                     : 1.85:1
Frame rate mode                          : Constant
Frame rate                               : 25.000 fps
Color space                              : YUV
Chroma subsampling                       : 4:2:0
Bit depth                                : 8 bits
Scan type                                : Progressive
Bits/(Pixel*Frame)                       : 0.157
Stream size                              : 4.57 GiB (96%)
Writing library                          : x264 core 122 r2184 5c85e0a
Encoding settings                        : cabac=1 / ref=4 / deblock=1:0:0 / analyse=0x3:0x113 / me=umh / subme=7 / psy=1 / psy_rd=1.00:0.00 / mixed_ref=1 / me_range=16 / chroma_me=1 / trellis=1 / 8x8dct=1 / cqm=0 / deadzone=21,11 / fast_pskip=0 / chroma_qp_offset=-2 / threads=3 / sliced_threads=0 / nr=0 / decimate=1 / interlaced=0 / bluray_compat=0 / constrained_intra=0 / bframes=3 / b_pyramid=2 / b_adapt=1 / b_bias=0 / direct=1 / weightb=1 / open_gop=0 / weightp=2 / keyint=250 / keyint_min=25 / scenecut=40 / intra_refresh=0 / rc_lookahead=40 / rc=crf / mbtree=1 / crf=20.0 / qcomp=0.60 / qpmin=0 / qpmax=69 / qpstep=4 / ip_ratio=1.40 / aq=1:1.00
Default                                  : Yes
Forced                                   : No

Audio
ID                                       : 2
Format                                   : AC-3
Format/Info                              : Audio Coding 3
Mode extension                           : CM (complete main)
Format settings, Endianness              : Big
Codec ID                                 : A_AC3
Duration                                 : 1h 23mn
Bit rate mode                            : Constant
Bit rate                                 : 192 Kbps
Channel(s)                               : 2 channels
Channel positions                        : Front: L R
Sampling rate                            : 48.0 KHz
Frame rate                               : 31.250 fps (1536 spf)
Compression mode                         : Lossy
Stream size                              : 115 MiB (2%)
Language                                 : English
Default                                  : No
Forced                                   : No

Menu
00:00:00.000                             : en:00:00:00.000
00:08:00.000                             : en:00:08:00.000
00:16:00.000                             : en:00:16:00.000
00:24:00.000                             : en:00:24:00.000
00:32:00.000                             : en:00:32:00.000
00:40:00.000                             : en:00:40:00.000
00:48:00.000                             : en:00:48:00.000
00:56:00.000                             : en:00:56:00.000
01:04:00.000                             : en:01:04:00.000
01:12:00.000                             : en:01:12:00.000
01:16:00.000                             : en:01:16:00.000
01:20:00.000                             : en:01:20:00.000






       

本帖子中包含更多资源

您需要 登录 才可以下载或查看,没有帐号?立即注册  

x

发表回复

您需要登录后才可以回帖 登录 | 立即注册  

本版积分规则

无觅相关文章插件

快速回复 返回顶部 返回列表