返回列表 发新帖

[BD-Rip] [BT下载]捉鬼敢死队 Ghostbusters.1984.REMASTERED.1080p.BluRay.x264.DTS-FGT 16.1G

[复制链接]

发表在  2016-8-1 02:13:34 | 显示全部楼层 | 阅读模式
-->
◎译  名 捉鬼敢死队/魔鬼克星
◎片  名 Ghostbusters
◎年  代 1984
◎国  家 美国
◎类  别 喜剧/科幻/奇幻
◎语  言 英语
◎上映日期 1984-06-08
◎IMDb评分  7.8/10 from 269,138 users
◎IMDb链接  http://www.imdb.com/title/tt0087332/
◎豆瓣评分 6.7/10 from 6,404 users
◎豆瓣链接 https://movie.douban.com/subject/1293760/
◎BT之家整理 http://www.btbbt.cc
◎片  长 105 分钟
◎导  演 伊万·雷特曼 Ivan Reitman
◎主  演 比尔·默瑞 Bill Murray
      丹·艾克罗伊德 Dan Aykroyd
      西格妮·韦弗 Sigourney Weaver
      哈罗德·雷米斯 Harold Ramis
      安妮·波茨 Annie Potts
      里克·莫拉尼斯 Rick Moranis


◎简  介


  三名大学教授彼得·温克曼(比尔·默瑞 Bill Murray饰)、雷蒙德·斯坦兹(丹·艾克罗伊德 Dan Aykroyd饰)和艾根·斯宾格勒(哈罗德·雷米斯 Harold Ramis饰)专门研究鬼怪灵异之事。他们决定离开校园实验室,组成“捉鬼大队”。他们用最新的科学仪器,对付在纽约市出没的无数大鬼小鬼,取得成功。可政府部门却将他们视为江湖骗术。直到有一天,一群邪恶的魔鬼包围了整座纽约市,并附身于美女德纳(西格妮·韦弗 Sigourney Weaver饰)身上时,众人终于意识到了事态的严重。这只“捉鬼大队”是否能够拯救纽约,让魔鬼无所遁形呢?
  本片荣获1985年第57届奥斯卡金像奖,最佳视觉效果、最佳原创歌曲提名,被誉为影史上最受欢迎、最好笑的喜剧之一。


◎获奖情况


  第57届奥斯卡金像奖  (1985)
  最佳视觉效果(提名) 理查德·艾德兰德 / Mark Vargo / Chuck Gaspar / 约翰·布鲁诺
  最佳原创歌曲(提名) Ray Parker Jr.


Video
ID                                       : 1
Format                                   : AVC
Format/Info                              : Advanced Video Codec
Format profile                           : High@L4.1
Format settings, CABAC                   : Yes
Format settings, ReFrames                : 5 frames
Codec ID                                 : V_MPEG4/ISO/AVC
Duration                                 : 1h 45mn
Bit rate                                 : 20.4 Mbps
Width                                    : 1 920 pixels
Height                                   : 804 pixels
Display aspect ratio                     : 2.40:1
Frame rate mode                          : Constant
Frame rate                               : 23.976 (24000/1001) fps
Color space                              : YUV
Chroma subsampling                       : 4:2:0
Bit depth                                : 8 bits
Scan type                                : Progressive
Bits/(Pixel*Frame)                       : 0.552
Stream size                              : 14.7 GiB (91%)
Writing library                          : x264 core 142 r2491 24e4fed
Encoding settings                        : cabac=1 / ref=5 / deblock=1:-3:-3 / analyse=0x3:0x113 / me=umh / subme=10 / psy=1 / psy_rd=1.00:0.05 / mixed_ref=1 / me_range=48 / chroma_me=1 / trellis=2 / 8x8dct=1 / cqm=0 / deadzone=21,11 / fast_pskip=1 / chroma_qp_offset=-3 / threads=6 / lookahead_threads=1 / sliced_threads=0 / nr=0 / decimate=1 / interlaced=0 / bluray_compat=0 / constrained_intra=0 / bframes=7 / b_pyramid=2 / b_adapt=2 / b_bias=0 / direct=1 / weightb=1 / open_gop=0 / weightp=2 / keyint=240 / keyint_min=23 / scenecut=40 / intra_refresh=0 / rc_lookahead=40 / rc=2pass / mbtree=1 / bitrate=20422 / ratetol=1.0 / qcomp=0.70 / qpmin=0 / qpmax=69 / qpstep=4 / cplxblur=20.0 / qblur=0.5 / vbv_maxrate=62500 / vbv_bufsize=78125 / nal_hrd=none / filler=0 / ip_ratio=1.40 / aq=1:1.10
Language                                 : English
Default                                  : Yes
Forced                                   : No
Color range                              : Limited
Color primaries                          : BT.709
Transfer characteristics                 : BT.709
Matrix coefficients                      : BT.709

Audio
ID                                       : 2
Format                                   : DTS
Format/Info                              : Digital Theater Systems
Mode                                     : 16
Format settings, Endianness              : Big
Codec ID                                 : A_DTS
Duration                                 : 1h 45mn
Bit rate mode                            : Constant
Bit rate                                 : 1 509 Kbps
Channel(s)                               : 6 channels
Channel positions                        : Front: L C R, Side: L R, LFE
Sampling rate                            : 48.0 KHz
Frame rate                               : 93.750 fps (512 spf)
Bit depth                                : 16 bits
Compression mode                         : Lossy
Stream size                              : 1.11 GiB (7%)
Language                                 : English
Default                                  : Yes
Forced                                   : No

Text
ID                                       : 3
Format                                   : PGS
Muxing mode                              : zlib
Codec ID                                 : S_HDMV/PGS
Codec ID/Info                            : Picture based subtitle format used on BDs/HD-DVDs
Title                                    : English
Language                                 : English
Default                                  : No
Forced                                   : No

Menu
00:00:00.000                             : en:00:00:00.000
00:00:02.753                             : en:00:00:02.753
00:04:15.630                             : en:00:04:15.630
00:05:13.146                             : en:00:05:13.146
00:07:08.053                             : en:00:07:08.053
00:09:27.650                             : en:00:09:27.650
00:09:57.639                             : en:00:09:57.639
00:10:18.409                             : en:00:10:18.409
00:12:38.633                             : en:00:12:38.633
00:14:27.200                             : en:00:14:27.200
00:15:03.820                             : en:00:15:03.820
00:15:46.362                             : en:00:15:46.362
00:17:06.192                             : en:00:17:06.192
00:18:37.116                             : en:00:18:37.116
00:19:27.500                             : en:00:19:27.500
00:20:15.840                             : en:00:20:15.840
00:20:55.921                             : en:00:20:55.921
00:22:10.746                             : en:00:22:10.746
00:24:08.572                             : en:00:24:08.572
00:25:43.000                             : en:00:25:43.000
00:28:40.469                             : en:00:28:40.469
00:30:16.773                             : en:00:30:16.773
00:30:49.848                             : en:00:30:49.848
00:31:57.791                             : en:00:31:57.791
00:32:22.732                             : en:00:32:22.732
00:35:33.465                             : en:00:35:33.465
00:35:47.479                             : en:00:35:47.479
00:38:16.669                             : en:00:38:16.669
00:39:29.284                             : en:00:39:29.284
00:40:52.825                             : en:00:40:52.825
00:42:07.275                             : en:00:42:07.275
00:42:57.325                             : en:00:42:57.325
00:43:50.962                             : en:00:43:50.962
00:44:47.310                             : en:00:44:47.310
00:45:17.465                             : en:00:45:17.465
00:45:53.709                             : en:00:45:53.709
00:46:54.770                             : en:00:46:54.770
00:47:59.794                             : en:00:47:59.794
00:50:25.147                             : en:00:50:25.147
00:53:18.529                             : en:00:53:18.529
00:54:48.744                             : en:00:54:48.744
00:55:42.047                             : en:00:55:42.047
00:56:23.130                             : en:00:56:23.130
00:57:16.058                             : en:00:57:16.058
00:59:14.384                             : en:00:59:14.384
01:00:21.660                             : en:01:00:21.660
01:00:48.687                             : en:01:00:48.687
01:01:36.276                             : en:01:01:36.276
01:02:35.502                             : en:01:02:35.502
01:04:32.869                             : en:01:04:32.869
01:05:41.813                             : en:01:05:41.813
01:08:16.634                             : en:01:08:16.634
01:09:54.273                             : en:01:09:54.273
01:10:51.247                             : en:01:10:51.247
01:11:54.852                             : en:01:11:54.852
01:12:21.837                             : en:01:12:21.837
01:15:22.435                             : en:01:15:22.435
01:16:26.373                             : en:01:16:26.373
01:17:57.339                             : en:01:17:57.339
01:20:46.300                             : en:01:20:46.300
01:22:57.181                             : en:01:22:57.181
01:24:04.414                             : en:01:24:04.414
01:25:59.321                             : en:01:25:59.321
01:28:20.128                             : en:01:28:20.128
01:30:57.911                             : en:01:30:57.911
01:33:52.919                             : en:01:33:52.919
01:34:13.606                             : en:01:34:13.606
01:35:40.944                             : en:01:35:40.944
01:36:29.367                             : en:01:36:29.367
01:37:10.616                             : en:01:37:10.616
01:37:53.201                             : en:01:37:53.201





       

本帖子中包含更多资源

您需要 登录 才可以下载或查看,没有帐号?立即注册  

x

发表回复

您需要登录后才可以回帖 登录 | 立即注册  

本版积分规则

无觅相关文章插件

快速回复 返回顶部 返回列表