返回列表 发新帖

[BD-Rip] [BT下载]陷入困境 Caught.In.The.Crossfire.2010.1080p.BluRay.x264-Japhson 6.55G

[复制链接]

发表在  2016-8-1 18:18:49 | 显示全部楼层 | 阅读模式
-->
◎译  名 陷入困境
◎片  名 Caught in the Crossfire
◎年  代 2010
◎国  家 美国
◎类  别 犯罪
◎语  言 英语
◎IMDb评分  4.5/10 from 980 users
◎IMDb链接  http://www.imdb.com/title/tt1449379/
◎豆瓣评分 6.1/10 from 100 users
◎豆瓣链接 https://movie.douban.com/subject/3835524/
◎BT之家整理 http://www.btbbt.cc
◎导  演 Brian A Miller
◎主  演 克里斯·克莱因 Chris Klein
      50分 50 Cent
      克里斯蒂娜·拉金 Christine Lakin


◎简  介


  两名侦探正在调查一起牵扯帮派的犯罪案件,他俩发现自己成了两方帮派共同的目标,几个不老实的警察也盯上了他俩。


Video
ID                                       : 1
Format                                   : AVC
Format/Info                              : Advanced Video Codec
Format profile                           : High@L4.1
Format settings, CABAC                   : Yes
Format settings, ReFrames                : 4 frames
Codec ID                                 : V_MPEG4/ISO/AVC
Duration                                 : 1h 24mn
Bit rate                                 : 9 577 Kbps
Width                                    : 1 920 pixels
Height                                   : 1 080 pixels
Display aspect ratio                     : 16:9
Frame rate mode                          : Constant
Frame rate                               : 23.976 (24000/1001) fps
Color space                              : YUV
Chroma subsampling                       : 4:2:0
Bit depth                                : 8 bits
Scan type                                : Progressive
Bits/(Pixel*Frame)                       : 0.193
Stream size                              : 5.52 GiB (84%)
Writing library                          : x264 core 98 r1649 c54c47d
Encoding settings                        : cabac=1 / ref=4 / deblock=1:-1:-1 / analyse=0x3:0x113 / me=umh / subme=7 / psy=1 / psy_rd=1.00:0.00 / mixed_ref=1 / me_range=16 / chroma_me=1 / trellis=1 / 8x8dct=1 / cqm=0 / deadzone=21,11 / fast_pskip=1 / chroma_qp_offset=-2 / threads=12 / sliced_threads=0 / nr=0 / decimate=1 / interlaced=0 / constrained_intra=0 / bframes=3 / b_pyramid=2 / b_adapt=2 / b_bias=0 / direct=3 / weightb=1 / weightp=2 / keyint=250 / keyint_min=25 / scenecut=40 / intra_refresh=0 / rc_lookahead=40 / rc=2pass / mbtree=1 / bitrate=9577 / ratetol=1.0 / qcomp=0.60 / qpmin=10 / qpmax=51 / qpstep=4 / cplxblur=20.0 / qblur=0.5 / vbv_maxrate=50000 / vbv_bufsize=50000 / ip_ratio=1.40 / aq=1:1.00 / nal_hrd=none
Language                                 : English
Default                                  : Yes
Forced                                   : Yes

Audio
ID                                       : 2
Format                                   : DTS
Format/Info                              : Digital Theater Systems
Mode                                     : 16
Format settings, Endianness              : Big
Muxing mode                              : Header stripping
Codec ID                                 : A_DTS
Duration                                 : 1h 24mn
Bit rate mode                            : Constant
Bit rate                                 : 1 509 Kbps
Channel(s)                               : 6 channels
Channel positions                        : Front: L C R, Side: L R, LFE
Sampling rate                            : 48.0 KHz
Frame rate                               : 93.750 fps (512 spf)
Bit depth                                : 16 bits
Compression mode                         : Lossy
Stream size                              : 914 MiB (14%)
Language                                 : English
Default                                  : Yes
Forced                                   : Yes





       

本帖子中包含更多资源

您需要 登录 才可以下载或查看,没有帐号?立即注册  

x

发表回复

您需要登录后才可以回帖 登录 | 立即注册  

本版积分规则

无觅相关文章插件

快速回复 返回顶部 返回列表