返回列表 发新帖

[BD-Rip] [BT下载]猫狗大战2:珍珠猫复仇 Cats.and.Dogs.2.2010.1080p.BluRay.x264-CROSSBOW 6.5G

[复制链接]

发表在  2016-8-1 16:58:45 | 显示全部楼层 | 阅读模式
-->
◎译  名 猫狗大战:珍珠猫复仇/猫狗大战:珍珠猫大反扑(台)/猫狗斗多番(港)/猫狗大战2:猫怪的复仇/猫狗大战2
◎片  名 Cats & Dogs: The Revenge of Kitty Galore
◎年  代 2010
◎国  家 美国/澳大利亚 Australia
◎类  别 喜剧/动作/家庭
◎语  言 英语
◎上映日期 2010-07-30
◎IMDb评分  4.3/10 from 10,203 users
◎IMDb链接  http://www.imdb.com/title/tt1287468/
◎豆瓣评分 6.5/10 from 8,037 users
◎豆瓣链接 https://movie.douban.com/subject/3213270/
◎片  长 82分钟
◎导  演 Brad Peyton
◎主  演 克里斯·奥唐纳 Chris O'Donnell
      杰克·麦克布瑞尔 Jack McBrayer
      Paul Rodriguez
      马尔科姆·斯图尔特 Malcolm Stewart
      David Milchard


◎简  介


  本片为2001年在《猫狗大战》的续集。
  故事发生在距离上一次猫咪和狗狗的大战已经过去了数年之后。来之不易的和平再一次受到威胁。这次的敌人可不是上一部中的笨蛋,它可是原猫咪间谍组织“喵”(MEOWS)的顶级特工,名为Kitty Galore。它顺利地窃取到了狗狗组织的核心机密,并且为了报复狗狗组织和人类,它设计了一个恐怖而毒辣的计划意图控制全世界!在面对这样一个迫在眉睫且前所未有的致命威胁的紧要关头,猫与狗在万不得已的情况下,只能被迫选择结成同盟——这还是这两种生物历史上的第一次,在这个由一只猫所制造的浩劫当中,它们需要拯救的不仅仅是自己,还有他们深爱着的人类。为了阻挠邪恶计划的征途,它们必须得将身体里潜藏的一切生物本能发挥到极致才行……


◎获奖情况


  第31届金酸莓奖  (2011)
  最差3D电影(提名)


Video
ID                                       : 1
Format                                   : AVC
Format/Info                              : Advanced Video Codec
Format profile                           : High@L4.1
Format settings, CABAC                   : Yes
Format settings, ReFrames                : 4 frames
Codec ID                                 : V_MPEG4/ISO/AVC
Duration                                 : 1h 22mn
Bit rate                                 : 9 890 Kbps
Width                                    : 1 920 pixels
Height                                   : 1 080 pixels
Display aspect ratio                     : 16:9
Frame rate mode                          : Constant
Frame rate                               : 23.976 (24000/1001) fps
Color space                              : YUV
Chroma subsampling                       : 4:2:0
Bit depth                                : 8 bits
Scan type                                : Progressive
Bits/(Pixel*Frame)                       : 0.199
Stream size                              : 5.56 GiB (85%)
Writing library                          : x264 core 107 r1745 4785e8e
Encoding settings                        : cabac=1 / ref=4 / deblock=1:0:0 / analyse=0x3:0x113 / me=umh / subme=7 / psy=1 / psy_rd=1.00:0.15 / mixed_ref=1 / me_range=16 / chroma_me=1 / trellis=1 / 8x8dct=1 / cqm=0 / deadzone=21,11 / fast_pskip=0 / chroma_qp_offset=-3 / threads=6 / sliced_threads=0 / nr=0 / decimate=1 / interlaced=0 / constrained_intra=0 / bframes=3 / b_pyramid=2 / b_adapt=1 / b_bias=0 / direct=1 / weightb=1 / open_gop=0 / weightp=2 / keyint=250 / keyint_min=23 / scenecut=40 / intra_refresh=0 / rc_lookahead=40 / rc=2pass / mbtree=1 / bitrate=9890 / ratetol=1.0 / qcomp=0.60 / qpmin=10 / qpmax=51 / qpstep=4 / cplxblur=20.0 / qblur=0.5 / ip_ratio=1.40 / aq=1:1.00
Language                                 : English
Default                                  : Yes
Forced                                   : No

Audio
ID                                       : 2
Format                                   : DTS
Format/Info                              : Digital Theater Systems
Mode                                     : 16
Format settings, Endianness              : Big
Codec ID                                 : A_DTS
Duration                                 : 1h 22mn
Bit rate mode                            : Constant
Bit rate                                 : 1 509 Kbps
Channel(s)                               : 6 channels
Channel positions                        : Front: L C R, Side: L R, LFE
Sampling rate                            : 48.0 KHz
Frame rate                               : 93.750 fps (512 spf)
Bit depth                                : 24 bits
Compression mode                         : Lossy
Stream size                              : 889 MiB (13%)
Language                                 : English
Default                                  : Yes
Forced                                   : No

Text
ID                                       : 3
Format                                   : UTF-8
Codec ID                                 : S_TEXT/UTF8
Codec ID/Info                            : UTF-8 Plain Text
Language                                 : English
Default                                  : No
Forced                                   : No







       

本帖子中包含更多资源

您需要 登录 才可以下载或查看,没有帐号?立即注册  

x

发表于 2016-8-1 19:48:20 | 显示全部楼层
好搞笑的电影,谢谢分享

发表回复

您需要登录后才可以回帖 登录 | 立即注册  

本版积分规则

无觅相关文章插件

快速回复 返回顶部 返回列表