返回列表 发新帖

[BD-Rip] [BT下载]鲶鱼/非识不可(台)/猫鱼 Catfish.2010.1080p.BluRay.x264-FHD 6.09G

[复制链接]

发表在  2016-8-1 18:19:16 | 显示全部楼层 | 阅读模式
-->
◎译  名 鲶鱼/非识不可(台)/猫鱼
◎片  名 Catfish
◎年  代 2010
◎国  家 美国
◎类  别 纪录片
◎语  言 英语
◎上映日期 2010-09-17(美国)
◎IMDb评分  7.1/10 from 34,822 users
◎IMDb链接  http://www.imdb.com/title/tt1584016/
◎豆瓣评分 7.7/10 from 2,194 users
◎豆瓣链接 https://movie.douban.com/subject/4259279/
◎BT之家整理 http://www.btbbt.cc
◎片  长 87分钟
◎导  演 Henry Joost / Ariel Schulman
◎主  演 Melody C. Roscher
      Ariel Schulman
      Yaniv Schulman
      Angela Wesselman-Pierce


◎简  介


  2007年,美国内华达州。24岁的年轻摄影师雅尼夫·舒尔曼(雅尼夫·舒尔曼 Yaniv Schulman饰)收到了一幅根据他摄影作品绘制而成的画作。欣喜之余,他惊讶地发现这幅画作居然出自一名八岁的小女孩麦乐迪·罗雪尔(麦乐迪·罗雪尔 Melody C. Roscher饰)之手。雅尼夫立刻在Facebook上与这位才华洋溢的小女孩结成了好朋友。通过麦乐迪,雅尼夫开始了解她的家庭,更与她的姐姐梅根·法契欧(梅根·法契欧 Megan Faccio饰)展开了一段浪漫的异地恋。雅尼夫的哥哥艾瑞儿·舒勒曼(艾瑞儿·舒勒曼 Ariel Schulman饰)决定与他的好友亨利·乔斯特(亨利·乔斯特 Henry Joost饰)将这段恋情经历拍成纪录片。然而一连串隐藏在网络背后令人毛骨悚然的谎言,渐渐浮出水面,令人不寒而栗。
  由新人导演亨利·乔斯特携手艾瑞儿·舒勒曼执导的一鸣惊人之作《鲶鱼》,以纪录片的形式,呈现出了一段交织在爱情与家庭伦理间的生活启示录。


Video
ID                                       : 1
Format                                   : AVC
Format/Info                              : Advanced Video Codec
Format profile                           : High@L4.1
Format settings, CABAC                   : Yes
Format settings, ReFrames                : 4 frames
Codec ID                                 : V_MPEG4/ISO/AVC
Duration                                 : 1h 27mn
Bit rate                                 : 8 459 Kbps
Width                                    : 1 920 pixels
Height                                   : 1 040 pixels
Display aspect ratio                     : 1.85:1
Frame rate mode                          : Constant
Frame rate                               : 23.976 (24000/1001) fps
Color space                              : YUV
Chroma subsampling                       : 4:2:0
Bit depth                                : 8 bits
Scan type                                : Progressive
Bits/(Pixel*Frame)                       : 0.177
Stream size                              : 5.04 GiB (83%)
Writing library                          : x264 core 112 r1834 a51816a
Encoding settings                        : cabac=1 / ref=4 / deblock=1:0:0 / analyse=0x3:0x113 / me=umh / subme=7 / psy=1 / psy_rd=1.00:0.00 / mixed_ref=1 / me_range=16 / chroma_me=1 / trellis=1 / 8x8dct=1 / cqm=0 / deadzone=21,11 / fast_pskip=0 / chroma_qp_offset=-2 / threads=12 / sliced_threads=0 / nr=0 / decimate=1 / interlaced=0 / constrained_intra=0 / bframes=3 / b_pyramid=2 / b_adapt=1 / b_bias=0 / direct=1 / weightb=1 / open_gop=0 / weightp=2 / keyint=250 / keyint_min=23 / scenecut=40 / intra_refresh=0 / rc_lookahead=40 / rc=2pass / mbtree=1 / bitrate=8459 / ratetol=1.0 / qcomp=0.60 / qpmin=0 / qpmax=51 / qpstep=4 / cplxblur=20.0 / qblur=0.5 / ip_ratio=1.40 / aq=1:1.00
Language                                 : English
Default                                  : Yes
Forced                                   : No

Audio
ID                                       : 2
Format                                   : DTS
Format/Info                              : Digital Theater Systems
Mode                                     : 16
Format settings, Endianness              : Big
Codec ID                                 : A_DTS
Duration                                 : 1h 27mn
Bit rate mode                            : Constant
Bit rate                                 : 1 509 Kbps
Channel(s)                               : 6 channels
Channel positions                        : Front: L C R, Side: L R, LFE
Sampling rate                            : 48.0 KHz
Frame rate                               : 93.750 fps (512 spf)
Bit depth                                : 24 bits
Compression mode                         : Lossy
Stream size                              : 944 MiB (15%)
Language                                 : English
Default                                  : Yes
Forced                                   : No





       

本帖子中包含更多资源

您需要 登录 才可以下载或查看,没有帐号?立即注册  

x

发表回复

您需要登录后才可以回帖 登录 | 立即注册  

本版积分规则

无觅相关文章插件

快速回复 返回顶部 返回列表