返回列表 发新帖

[WEB-DL] [BT下载]女儿 The.Daughter.2015.720p.WEB-DL.DD5.1.H264-FGT 2.86G

[复制链接]

发表在  2016-8-1 18:36:27 | 显示全部楼层 | 阅读模式
-->
◎译  名 女儿
◎片  名 The Daughter
◎年  代 2015
◎国  家 澳大利亚
◎类  别 剧情
◎语  言 英语
◎上映日期 2015-06-04
◎IMDb评分  7.2/10 from 657 users
◎IMDb链接  http://www.imdb.com/title/tt3922816/
◎豆瓣评分 6.6/10 from 18 users
◎豆瓣链接 https://movie.douban.com/subject/25982742/
◎BT之家整理 http://www.btbbt.cc
◎片  长 96分钟
◎导  演 西蒙·斯通 Simon Stone
◎主  演 杰弗里·拉什 Geoffrey Rush
      伊文·莱斯利 Ewen Leslie
      尼古拉斯·霍普 Nicholas Hope
      Odessa Young
      Wilson Moore
      山姆·尼尔 Sam Neill
      米兰达·奥图 Miranda Otto
      保罗·施耐德 Paul Schneider
      安娜·托芙 Anna Torv


◎简  介


  故事讲述了一名男子回到家中后,发现了一个在家族中深埋已久的秘密,当他打算要做一些正确的事情时,却对他的家人产生了巨大的威胁。




Video
ID                                       : 1
Format                                   : AVC
Format/Info                              : Advanced Video Codec
Format profile                           : Main@L3.1
Format settings, CABAC                   : No
Format settings, ReFrames                : 2 frames
Codec ID                                 : V_MPEG4/ISO/AVC
Duration                                 : 1h 34mn
Bit rate                                 : 3 843 Kbps
Width                                    : 1 280 pixels
Height                                   : 532 pixels
Display aspect ratio                     : 2.40:1
Frame rate mode                          : Constant
Frame rate                               : 23.976 fps
Color space                              : YUV
Chroma subsampling                       : 4:2:0
Bit depth                                : 8 bits
Scan type                                : Progressive
Bits/(Pixel*Frame)                       : 0.235
Stream size                              : 2.55 GiB (89%)
Title                                    : The.Daughter.2015.720p.WEB-DL.DD5.1.H264-FGT
Language                                 : English
Default                                  : Yes
Forced                                   : No
Color range                              : Limited
Color primaries                          : BT.709
Transfer characteristics                 : BT.709
Matrix coefficients                      : BT.709

Audio
ID                                       : 2
Format                                   : AC-3
Format/Info                              : Audio Coding 3
Mode extension                           : CM (complete main)
Format settings, Endianness              : Big
Codec ID                                 : A_AC3
Duration                                 : 1h 34mn
Bit rate mode                            : Constant
Bit rate                                 : 384 Kbps
Channel(s)                               : 6 channels
Channel positions                        : Front: L C R, Side: L R, LFE
Sampling rate                            : 48.0 KHz
Frame rate                               : 31.250 fps (1536 spf)
Compression mode                         : Lossy
Stream size                              : 261 MiB (9%)
Title                                    : The.Daughter.2015.720p.WEB-DL.DD5.1.H264-FGT
Language                                 : English
Default                                  : Yes
Forced                                   : No

Text
ID                                       : 3
Format                                   : UTF-8
Codec ID                                 : S_TEXT/UTF8
Codec ID/Info                            : UTF-8 Plain Text
Language                                 : English
Default                                  : Yes
Forced                                   : No

Menu
00:00:00.000                             : en:Chapter 01
00:15:00.000                             : en:Chapter 02
00:30:00.000                             : en:Chapter 03
00:45:00.000                             : en:Chapter 04
01:00:00.000                             : en:Chapter 05
01:15:00.000                             : en:Chapter 06





       

本帖子中包含更多资源

您需要 登录 才可以下载或查看,没有帐号?立即注册  

x

发表回复

您需要登录后才可以回帖 登录 | 立即注册  

本版积分规则

无觅相关文章插件

快速回复 返回顶部 返回列表