返回列表 发新帖

[BD-Rip] [BT下载]入侵罗斯威尔 Invasion.Roswell.2013.1080p.BluRay.x264.DTS-FGT 5.23G

[复制链接]

发表在  2016-8-1 21:49:33 | 显示全部楼层 | 阅读模式
-->
◎译  名 入侵罗斯威尔
◎片  名 Invasion Roswell 2013
◎年  代 2013
◎国  家 美国
◎类  别 科幻
◎语  言 英语
◎IMDb评分  3.2/10 from 324 users
◎IMDb链接  http://www.imdb.com/title/tt3133114/
◎BT之家整理 http://www.btbbt.cc
◎主  演 格雷格·艾维甘 Greg Evigan
      丹尼斯·克罗斯比 Denise Crosby
      丹尼尔·休·凯利 Daniel Hugh Kelly
      史蒂芬·比灵顿 Stephen Billington


◎简  介


  After the American Army shot down a UFO in 1947, generations of elite commandos were secretly trained to deal with the aliens' feared return. However, the extra-terrestrials never came back and the elite force was disbanded. Sixty-six years after the Roswell crash, the aliens are invading Earth and only the over-the-hill retired commandos can stop them.


Video
ID                                       : 1
Format                                   : AVC
Format/Info                              : Advanced Video Codec
Format profile                           : High@L4.1
Format settings, CABAC                   : Yes
Format settings, ReFrames                : 4 frames
Codec ID                                 : V_MPEG4/ISO/AVC
Duration                                 : 1h 24mn
Bit rate                                 : 7 190 Kbps
Width                                    : 1 920 pixels
Height                                   : 1 080 pixels
Display aspect ratio                     : 16:9
Frame rate mode                          : Constant
Frame rate                               : 23.976 (24000/1001) fps
Color space                              : YUV
Chroma subsampling                       : 4:2:0
Bit depth                                : 8 bits
Scan type                                : Progressive
Bits/(Pixel*Frame)                       : 0.145
Stream size                              : 4.24 GiB (81%)
Writing library                          : x264 core 140 r2377 1ca7bb9
Encoding settings                        : cabac=1 / ref=4 / deblock=1:-1:-1 / analyse=0x3:0x133 / me=umh / subme=7 / psy=1 / psy_rd=1.00:0.15 / mixed_ref=1 / me_range=16 / chroma_me=1 / trellis=1 / 8x8dct=1 / cqm=0 / deadzone=21,11 / fast_pskip=0 / chroma_qp_offset=-3 / threads=18 / lookahead_threads=3 / sliced_threads=0 / nr=0 / decimate=1 / interlaced=0 / bluray_compat=0 / constrained_intra=0 / bframes=3 / b_pyramid=2 / b_adapt=1 / b_bias=0 / direct=1 / weightb=1 / open_gop=0 / weightp=2 / keyint=250 / keyint_min=23 / scenecut=40 / intra_refresh=0 / rc_lookahead=40 / rc=crf / mbtree=1 / crf=20.0 / qcomp=0.60 / qpmin=0 / qpmax=69 / qpstep=4 / ip_ratio=1.40 / aq=1:1.00
Default                                  : Yes
Forced                                   : No

Audio
ID                                       : 2
Format                                   : DTS
Format/Info                              : Digital Theater Systems
Mode                                     : 16
Format settings, Endianness              : Big
Codec ID                                 : A_DTS
Duration                                 : 1h 24mn
Bit rate mode                            : Constant
Bit rate                                 : 1 509 Kbps
Channel(s)                               : 6 channels
Channel positions                        : Front: L C R, Side: L R, LFE
Sampling rate                            : 48.0 KHz
Frame rate                               : 93.750 fps (512 spf)
Bit depth                                : 16 bits
Compression mode                         : Lossy
Stream size                              : 911 MiB (17%)
Language                                 : English
Default                                  : No
Forced                                   : No





       

本帖子中包含更多资源

您需要 登录 才可以下载或查看,没有帐号?立即注册  

x

发表回复

您需要登录后才可以回帖 登录 | 立即注册  

本版积分规则

无觅相关文章插件

快速回复 返回顶部 返回列表