返回列表 发新帖

[HDTV] [BT下载]鲨卷风4:四度觉醒 Sharknado.The.4th.Awakens.2016.720p.HDTV.x264-aAF 2.78G

[复制链接]

发表在  2016-8-1 21:36:37 | 显示全部楼层 | 阅读模式
-->
◎译  名 鲨卷风4:四度觉醒/鲨从天降4/鲨卷风4
◎片  名 Sharknado 4: The 4th Awakens
◎年  代 2016
◎国  家 美国
◎类  别 科幻/恐怖
◎语  言 英语
◎上映日期 2016-07-31(美国)
◎IMDb评分  5.2/10 from 376 users
◎IMDb链接  http://www.imdb.com/title/tt4831420/
◎BT之家整理 http://www.btbbt.cc
◎导  演 安东尼·C·费兰特 Anthony C. Ferrante
◎主  演 塔拉·雷德 Tara Reid
      科迪·林雷 Cody Linley
      玛歇娜·卢莎 Masiela Lusha
      大卫·哈塞尔霍夫 David Hasselhoff
      瑞恩·纽曼 Ryan Newman
      加里·布塞 Gary Busey
      伊恩·齐林 Ian Ziering
      谢丽尔·提格丝 Cheryl Tiegs
      Imani Hakim
      Tommy Davidson


◎简  介


  Five years after the East Coast was ravaged in 'Sharknado 3|' Fin and his family have been blissfully sharknado-free| but now sharks - and 'nados. - are being
whipped up in places (and ways) that are completely unexpected.




Video
ID                                       : 1
Format                                   : AVC
Format/Info                              : Advanced Video Codec
Format profile                           : High@L4.1
Format settings, CABAC                   : Yes
Format settings, ReFrames                : 5 frames
Codec ID                                 : V_MPEG4/ISO/AVC
Duration                                 : 1h 24mn
Bit rate                                 : 4 227 Kbps
Width                                    : 1 280 pixels
Height                                   : 718 pixels
Display aspect ratio                     : 16:9
Frame rate mode                          : Constant
Frame rate                               : 23.976 (24000/1001) fps
Color space                              : YUV
Chroma subsampling                       : 4:2:0
Bit depth                                : 8 bits
Scan type                                : Progressive
Bits/(Pixel*Frame)                       : 0.192
Stream size                              : 2.50 GiB (90%)
Writing library                          : x264 core 148 r2705 3f5ed56
Encoding settings                        : cabac=1 / ref=5 / deblock=1:0:0 / analyse=0x3:0x113 / me=umh / subme=8 / psy=1 / psy_rd=1.00:0.00 / mixed_ref=1 / me_range=16 / chroma_me=1 / trellis=1 / 8x8dct=1 / cqm=0 / deadzone=21,11 / fast_pskip=1 / chroma_qp_offset=-2 / threads=22 / lookahead_threads=3 / sliced_threads=0 / nr=0 / decimate=1 / interlaced=0 / bluray_compat=0 / constrained_intra=0 / bframes=3 / b_pyramid=2 / b_adapt=2 / b_bias=0 / direct=3 / weightb=1 / open_gop=0 / weightp=2 / keyint=250 / keyint_min=23 / scenecut=40 / intra_refresh=0 / rc_lookahead=50 / rc=crf / mbtree=1 / crf=18.0 / qcomp=0.60 / qpmin=0 / qpmax=69 / qpstep=4 / ip_ratio=1.40 / aq=1:1.00
Default                                  : Yes
Forced                                   : No
Color range                              : Limited
Matrix coefficients                      : BT.709

Audio
ID                                       : 2
Format                                   : AC-3
Format/Info                              : Audio Coding 3
Mode extension                           : CM (complete main)
Format settings, Endianness              : Big
Codec ID                                 : A_AC3
Duration                                 : 1h 24mn
Bit rate mode                            : Constant
Bit rate                                 : 384 Kbps
Channel(s)                               : 6 channels
Channel positions                        : Front: L C R, Side: L R, LFE
Sampling rate                            : 48.0 KHz
Frame rate                               : 31.250 fps (1536 spf)
Compression mode                         : Lossy
Stream size                              : 233 MiB (8%)
Default                                  : Yes
Forced                                   : No






       

本帖子中包含更多资源

您需要 登录 才可以下载或查看,没有帐号?立即注册  

x

发表于 2016-8-5 07:23:20 | 显示全部楼层
这个电影看上去还是和不错的

发表回复

您需要登录后才可以回帖 登录 | 立即注册  

本版积分规则

无觅相关文章插件

快速回复 返回顶部 返回列表