返回列表 发新帖

[BD-Rip] [BT下载]杀手壕 Battle.Creek.Brawl.1980.1080p.BluRay.x264.DTS-FGT 7.74G

[复制链接]

发表在  2016-8-1 22:45:59 | 显示全部楼层 | 阅读模式
-->
◎译  名 杀手壕
◎片  名 殺手壕
◎年  代 1980
◎国  家 美国/香港
◎类  别 动作/喜剧
◎语  言 英语
◎上映日期 1980-08-18
◎IMDb评分  5.8/10 from 3,636 users
◎IMDb链接  http://www.imdb.com/title/tt0080436/
◎豆瓣评分 5.8/10 from 1,651 users
◎豆瓣链接 https://movie.douban.com/subject/1303137/
◎BT之家整理 http://www.btbbt.cc
◎片  长 95 分钟
◎导  演 罗伯特·高洛斯 Robert Clouse
◎主  演 成龙
      何塞·费勒 José Ferrer
      克里斯汀·德贝尔 Kristine DeBell


◎简  介


  美国的“杀手壕”格斗比赛即将拉开帷幕,两支芝加哥地区的黑帮都意欲在比赛中胜出,而其中一方的王牌选手——杀人王李呼声颇高。青年阿龙(成龙 饰)一家在芝加哥经营饭店,龙父遭黑帮勒索,阿龙出手赶跑恶人反被父亲抱怨,原来龙父一直不满阿龙跟自己弟弟学习武术,斥之不务正业,要求他向做了医生的长子学习。阿龙教训恶徒的经过被黑帮二代当家彭看见,彭有意令阿龙为他们出战杀手壕比赛,彭所在黑帮随即殴打阿龙好友,并绑架了阿龙没过门的嫂子要挟他与杀人王战斗。阿龙和叔叔救人失败,无奈只得刻苦训练,代表彭一伙参加比赛。阿龙在比赛中连战连捷,在他和杀人王的终极决赛之时,彭却出卖了他……


Video
ID                                       : 1
Format                                   : AVC
Format/Info                              : Advanced Video Codec
Format profile                           : High@L4.1
Format settings, CABAC                   : Yes
Format settings, ReFrames                : 5 frames
Codec ID                                 : V_MPEG4/ISO/AVC
Duration                                 : 1h 36mn
Bit rate                                 : 10.0 Mbps
Width                                    : 1 920 pixels
Height                                   : 800 pixels
Display aspect ratio                     : 2.40:1
Frame rate mode                          : Constant
Frame rate                               : 23.976 (24000/1001) fps
Color space                              : YUV
Chroma subsampling                       : 4:2:0
Bit depth                                : 8 bits
Scan type                                : Progressive
Bits/(Pixel*Frame)                       : 0.272
Stream size                              : 6.57 GiB (85%)
Writing library                          : x264 core 142 r2431 ac76440
Encoding settings                        : cabac=1 / ref=5 / deblock=1:-3:-3 / analyse=0x3:0x133 / me=umh / subme=8 / psy=1 / psy_rd=1.00:0.15 / mixed_ref=1 / me_range=16 / chroma_me=1 / trellis=1 / 8x8dct=1 / cqm=0 / deadzone=21,11 / fast_pskip=0 / chroma_qp_offset=-3 / threads=12 / lookahead_threads=2 / sliced_threads=0 / nr=0 / decimate=1 / interlaced=0 / bluray_compat=0 / constrained_intra=0 / bframes=3 / b_pyramid=2 / b_adapt=2 / b_bias=0 / direct=3 / weightb=1 / open_gop=0 / weightp=2 / keyint=240 / keyint_min=23 / scenecut=40 / intra_refresh=0 / rc_lookahead=50 / rc=2pass / mbtree=1 / bitrate=10007 / ratetol=1.0 / qcomp=0.60 / qpmin=0 / qpmax=69 / qpstep=4 / cplxblur=20.0 / qblur=0.5 / ip_ratio=1.40 / aq=1:1.00
Language                                 : English
Default                                  : Yes
Forced                                   : No

Audio
ID                                       : 2
Format                                   : DTS
Format/Info                              : Digital Theater Systems
Mode                                     : 16
Format settings, Endianness              : Big
Codec ID                                 : A_DTS
Duration                                 : 1h 36mn
Bit rate mode                            : Constant
Bit rate                                 : 1 509 Kbps
Channel(s)                               : 6 channels
Channel positions                        : Front: L C R, Side: L R, LFE
Sampling rate                            : 48.0 KHz
Frame rate                               : 93.750 fps (512 spf)
Bit depth                                : 24 bits
Compression mode                         : Lossy
Stream size                              : 1.01 GiB (13%)
Language                                 : English
Default                                  : Yes
Forced                                   : No

Menu
00:00:00.000                             : en:00:00:00.000
00:07:33.161                             : en:00:07:33.161
00:13:43.448                             : en:00:13:43.448
00:20:48.456                             : en:00:20:48.456
00:30:07.431                             : en:00:30:07.431
00:39:34.831                             : en:00:39:34.831
00:49:32.970                             : en:00:49:32.970
00:58:05.524                             : en:00:58:05.524
01:05:32.387                             : en:01:05:32.387
01:12:31.806                             : en:01:12:31.806
01:20:07.094                             : en:01:20:07.094
01:27:24.781                             : en:01:27:24.781







       

本帖子中包含更多资源

您需要 登录 才可以下载或查看,没有帐号?立即注册  

x

发表于 2016-8-1 23:55:17 | 显示全部楼层
记得好像看过,不过,没想到是如此早时候成龙的片子啊

发表回复

您需要登录后才可以回帖 登录 | 立即注册  

本版积分规则

无觅相关文章插件

快速回复 返回顶部 返回列表