返回列表 发新帖

[BD-Rip] [360]谍影重重3.The Bourne Ultimatum.2007.BluRay.1080p.x264.AC3-DiaosMan[mp4/5.5G][国英

[复制链接]

发表在  2016-8-2 11:25:01 | 显示全部楼层 | 阅读模式

马上注册,结交更多好友,享用更多功能,让你轻松玩转社区。

您需要 登录 才可以下载或查看,没有帐号?立即注册  

x
-->在此声明DiaosMan官方发布专区为bger论坛,共享论坛为BTBBT、影视帝国。BT种子由蚂蚁高清代为制作,百度共享人名为mario5635,其他影视论坛网站及共享不表明出处,均为盗用!请大家转载时请在著名DiaosMan压制。
整剧均由DiaosMan个人压制完成。为更好控制文件大小,以H.264或HEVC(H.265)+硬字幕+AC3或AAC.MP4格式压制。
DiaosMan压制所用视频源和字幕均来自网络,如侵犯到任何个人或公司团体组织权益请及时与我留言,我将第一时间删除。

本片采用特效字幕来自CMCT。注:未经允许,不得转载,严禁盗用





◎片  名 - 谍影重重3
◎译  名 - The Bourne Ultimatum
◎年  代 - 2007年8月3日
◎国  家 - 美国
◎语  言 - 国语、英语
◎IMDb链接 - http://www.imdb.com/title/tt0440963
◎片  长 - 111分钟
◎导  演 - 保罗·格林格拉斯
◎主  演–马特·达蒙,朱丽娅·斯蒂尔斯
◎简  介 - 杰森·伯恩,这个对自己的过去一无所知的男人原本已经放弃了再追寻丢失的记忆的念头。因为他虽然没有国籍、虽然没有身份,但却找到了自己的挚爱玛丽。他原本打算与玛丽甜蜜的过完下半生,生儿育女,不再理往事。然而,伯恩虽有淡出之心,但拥有一身本领的他却相当惹眼,那些将他抛到地中海的黑暗组织早派人来追杀这个失忆的成员,而与伯恩一起逃亡的玛丽死在枪下。
  失去惟一依靠的伯恩发誓要找回自己的记忆,了解自己的身份,进而为玛丽报仇。失去妻子的伯恩游荡在欧洲各地寻找线索,已经成为暗杀目标的伯恩靠着自己一身本领制服了前来暗杀他的几个人之后,从他们身上找到了一丝线索,他渐渐知道自己所遭遇的一切与一个叫“踏石”的秘密特工养成计划有关,而他也是这个组织培养出来的特工。目前,“踏石”组织已经被美国国防部的一个新计划“黑烟斗”所取代,而“黑烟斗”的其中一个任务就是铲除已经不受控制的伯恩,“黑烟斗”潜伏在世界各地的杀手们都成了伯恩的敌人。
然而,已经失去妻子的伯恩再无牵挂,他选择主动出击,要将有份参与养成黑特工杰森·伯恩计划的一干人等统统灭掉,为自己报仇同样也为妻子报仇。伯恩四处奔走追击,先后到莫斯科、马德里、巴黎、摩洛哥的首都丹吉尔还有伦敦等地调查,期间与“黑烟斗”特工展开连串厮杀,同时又要对付国际警察和当地执法者。敌人越来越多,而伯恩的调查也越来越深入,疑问也逐渐得到解答,而最后,他到了纽约,在这里,他将能找到一切的答案,同时也能了解一切的事端。

◎编码参数 -
General
Complete name                    : 谍影重重3.The Bourne Ultimatum.2007.BluRay.1080p.x264.AC3.2Audios.中英特效-DiaosMan.mp4
Format                           : MPEG-4
Format profile                   : Base Media
Codec ID                         : isom
File size                        : 5.53 GiB
Duration                         : 1h 55mn
Overall bit rate                 : 6 871 Kbps
Encoded date                     : UTC 2016-07-31 23:01:39
Tagged date                      : UTC 2016-07-31 23:01:39

Video
ID                               : 1
Format                           : AVC
Format/Info                      : Advanced Video Codec
Format profile                   : High@L3.1
Format settings, CABAC           : Yes
Format settings, ReFrames        : 4 frames
Codec ID                         : avc1
Codec ID/Info                    : Advanced Video Coding
Duration                         : 1h 55mn
Bit rate mode                    : Variable
Bit rate                         : 6 357 Kbps
Maximum bit rate                 : 22.0 Mbps
Width                            : 1 920 pixels
Height                           : 1 080 pixels
Display aspect ratio             : 16:9
Frame rate mode                  : Constant
Frame rate                       : 23.976 fps
Color space                      : YUV
Chroma subsampling               : 4:2:0
Bit depth                        : 8 bits
Scan type                        : Progressive
Bits/(Pixel*Frame)               : 0.128
Stream size                      : 5.12 GiB (93%)
Writing library                  : x264 core 146
Encoding settings                : opencl=1 / cabac=1 / ref=1 / deblock=1:-1:-1 / analyse=0x3:0x113 / me=hex / subme=2 / psy=1 / psy_rd=1.00:0.15 / mixed_ref=0 / me_range=16 / chroma_me=1 / trellis=0 / 8x8dct=1 / cqm=0 / deadzone=21,11 / fast_pskip=1 / chroma_qp_offset=0 / threads=6 / lookahead_threads=2 / sliced_threads=0 / nr=0 / decimate=1 / interlaced=0 / bluray_compat=0 / constrained_intra=0 / bframes=3 / b_pyramid=2 / b_adapt=1 / b_bias=0 / direct=1 / weightb=1 / open_gop=0 / weightp=1 / keyint=250 / keyint_min=23 / scenecut=40 / intra_refresh=0 / rc_lookahead=10 / rc=crf / mbtree=1 / crf=20.5 / qcomp=0.60 / qpmin=0 / qpmax=69 / qpstep=4 / ip_ratio=1.40 / aq=1:1.00
Tagged date                      : UTC 2016-07-31 23:06:55

Audio #1
ID                               : 2
Format                           : AC-3
Format/Info                      : Audio Coding 3
Mode extension                   : CM (complete main)
Codec ID                         : ac-3
Duration                         : 1h 55mn
Bit rate mode                    : Constant
Bit rate                         : 256 Kbps
Maximum bit rate                 : 270 Kbps
Channel(s)                       : 6 channels
Channel positions                : Front: L C R, Side: L R, LFE
Sampling rate                    : 48.0 KHz
Bit depth                        : 16 bits
Compression mode                 : Lossy
Stream size                      : 211 MiB (4%)
Title                            : 国语 5.1
Language                         : Chinese
Encoded date                     : UTC 2016-07-31 23:06:08
Tagged date                      : UTC 2016-07-31 23:06:55

Audio #2
ID                               : 3
Format                           : AC-3
Format/Info                      : Audio Coding 3
Mode extension                   : CM (complete main)
Codec ID                         : ac-3
Duration                         : 1h 55mn
Bit rate mode                    : Constant
Bit rate                         : 256 Kbps
Maximum bit rate                 : 270 Kbps
Channel(s)                       : 6 channels
Channel positions                : Front: L C R, Side: L R, LFE
Sampling rate                    : 48.0 KHz
Bit depth                        : 16 bits
Compression mode                 : Lossy
Stream size                      : 211 MiB (4%)
Title                            : 英语 5.1
Language                         : English
Encoded date                     : UTC 2016-07-31 23:06:31
Tagged date                      : UTC 2016-07-31 23:06:55


◎视频截图









(下载后,扩展名为.mp4D改成.mp4即可)
360链接:https://yunpan.cn/c6YihagfdshiT  访问密码 4858
DiaosMan官方发布专区:http://bger.me/forum-90-1.html
已有1人评分 Me币 理由
qinshaole + 1 +正合我意

查看全部评分 总评分: Me币 +1 

发表于 2016-8-13 16:05:28 | 显示全部楼层
我也很喜欢这部电影,,我四部都收藏了高清版了,,接下来我期待第五部,,8.23就在我们中国公映了。

希望版主能为我们大家提供高清版的,在此先谢谢了。

发表于 2016-8-24 19:59:06 | 显示全部楼层

发表回复

您需要登录后才可以回帖 登录 | 立即注册  

本版积分规则

无觅相关文章插件

快速回复 返回顶部 返回列表