返回列表 发新帖

[BD-Rip] [360]谍影重重2.The Bourne Supremacy.2004.BluRay.1080p.x264.AC3-DiaosMan[mp4/6G][国英/中

[复制链接]

发表在  2016-8-2 10:54:07 | 显示全部楼层 | 阅读模式

马上注册,结交更多好友,享用更多功能,让你轻松玩转社区。

您需要 登录 才可以下载或查看,没有帐号?立即注册  

x
-->

在此声明DiaosMan官方发布专区为bger论坛,共享论坛为BTBBT、影视帝国。BT种子由蚂蚁高清代为制作,百度共享人名为mario5635,其他影视论坛网站及共享不表明出处,均为盗用!请大家转载时请在著名DiaosMan压制。
整剧均由DiaosMan个人压制完成。为更好控制文件大小,以H.264或HEVC(H.265)+硬字幕+AC3或AAC.MP4格式压制。
DiaosMan压制所用视频源和字幕均来自网络,如侵犯到任何个人或公司团体组织权益请及时与我留言,我将第一时间删除。

本片采用特效字幕来自CMCT。注:未经允许,不得转载,严禁盗用!




◎片  名 - 谍影重重2
◎译  名 -
◎年  代 - 2004年7月23
◎国  家 - 美国
◎语  言 - 国语、英语
◎IMDb链接 - http://www.imdb.com/title/tt0372183
◎片  长 - 108分钟
◎导  演 - 保罗·格林格拉斯
◎主  演–马特·达蒙,卡尔·厄本,弗兰卡·波坦特,琼·艾伦
◎简  介 - 经历第一集中的腥风血雨之后,伯恩(马特·达蒙饰)和自己的女友化名隐身在一个偏僻遥远的海滨小镇。虽然伯恩不愿意回视过去,但“过去”却一直都在追随着他,伯恩发现秘密组织的杀手已经潜入小镇,为了保护女友玛丽·克鲁兹,他必须战斗。是一起国际政治刺杀事件让CIA重新审视已经失踪的伯恩的档案,一名某大国政要被职业杀手刺杀,刺杀者留下的证据显示他的名字叫“杰森·伯恩”,这是大卫·韦伯从前在中央情报局的化名。于是大卫·韦伯不仅仅要防备秘密组织暗地里的追杀,还要避开时刻寻找他的CIA特工。在上一集中和伯恩并肩作战的尼科莱特信任伯恩,但她发现自己也身陷困境。事态似乎变得越发失去控制,四面楚歌的“伯恩”现在只有单枪匹马地去找出那个冒充自己的人,洗刷自己和尼科莱特的清白。

◎编码参数 -
General
Complete name                    : 谍影重重2.The Bourne Supremacy.2004.BluRay.1080p.x264.AC3.2Audios.中英特效-DiaosMan.mp4
Format                           : MPEG-4
Format profile                   : Base Media
Codec ID                         : isom
File size                        : 6.04 GiB
Duration                         : 1h 48mn
Overall bit rate                 : 7 961 Kbps
Encoded date                     : UTC 2016-07-31 02:04:58
Tagged date                      : UTC 2016-07-31 02:04:58

Video
ID                               : 1
Format                           : AVC
Format/Info                      : Advanced Video Codec
Format profile                   : High@L3.1
Format settings, CABAC           : Yes
Format settings, ReFrames        : 4 frames
Codec ID                         : avc1
Codec ID/Info                    : Advanced Video Coding
Duration                         : 1h 48mn
Bit rate mode                    : Variable
Bit rate                         : 7 447 Kbps
Maximum bit rate                 : 27.9 Mbps
Width                            : 1 920 pixels
Height                           : 1 080 pixels
Display aspect ratio             : 16:9
Frame rate mode                  : Constant
Frame rate                       : 23.976 fps
Color space                      : YUV
Chroma subsampling               : 4:2:0
Bit depth                        : 8 bits
Scan type                        : Progressive
Bits/(Pixel*Frame)               : 0.150
Stream size                      : 5.65 GiB (94%)
Writing library                  : x264 core 146
Encoding settings                : opencl=1 / cabac=1 / ref=1 / deblock=1:-1:-1 / analyse=0x3:0x113 / me=hex / subme=2 / psy=1 / psy_rd=1.00:0.15 / mixed_ref=0 / me_range=16 / chroma_me=1 / trellis=0 / 8x8dct=1 / cqm=0 / deadzone=21,11 / fast_pskip=1 / chroma_qp_offset=0 / threads=6 / lookahead_threads=2 / sliced_threads=0 / nr=0 / decimate=1 / interlaced=0 / bluray_compat=0 / constrained_intra=0 / bframes=3 / b_pyramid=2 / b_adapt=1 / b_bias=0 / direct=1 / weightb=1 / open_gop=0 / weightp=1 / keyint=250 / keyint_min=23 / scenecut=40 / intra_refresh=0 / rc_lookahead=10 / rc=crf / mbtree=1 / crf=20.5 / qcomp=0.60 / qpmin=0 / qpmax=69 / qpstep=4 / ip_ratio=1.40 / aq=1:1.00
Tagged date                      : UTC 2016-07-31 02:10:27

Audio #1
ID                               : 2
Format                           : AC-3
Format/Info                      : Audio Coding 3
Mode extension                   : CM (complete main)
Codec ID                         : ac-3
Duration                         : 1h 48mn
Bit rate mode                    : Constant
Bit rate                         : 256 Kbps
Maximum bit rate                 : 270 Kbps
Channel(s)                       : 6 channels
Channel positions                : Front: L C R, Side: L R, LFE
Sampling rate                    : 48.0 KHz
Bit depth                        : 16 bits
Compression mode                 : Lossy
Stream size                      : 199 MiB (3%)
Title                            : 国语 5.1
Language                         : Chinese
Encoded date                     : UTC 2016-07-31 02:09:41
Tagged date                      : UTC 2016-07-31 02:10:27

Audio #2
ID                               : 3
Format                           : AC-3
Format/Info                      : Audio Coding 3
Mode extension                   : CM (complete main)
Codec ID                         : ac-3
Duration                         : 1h 48mn
Bit rate mode                    : Constant
Bit rate                         : 256 Kbps
Maximum bit rate                 : 270 Kbps
Channel(s)                       : 6 channels
Channel positions                : Front: L C R, Side: L R, LFE
Sampling rate                    : 48.0 KHz
Bit depth                        : 16 bits
Compression mode                 : Lossy
Stream size                      : 199 MiB (3%)
Title                            : 英语 5.1
Language                         : English
Encoded date                     : UTC 2016-07-31 02:10:04
Tagged date                      : UTC 2016-07-31 02:10:27

◎视频截图









(下载后,扩展名为.mp4D改成.mp4即可)
360链接:https://yunpan.cn/c6YiIseqwmngc 访问密码 dd90
DiaosMan官方发布专区:http://bger.me/forum-90-1.html

发表回复

您需要登录后才可以回帖 登录 | 立即注册  

本版积分规则

无觅相关文章插件

快速回复 返回顶部 返回列表