返回列表 发新帖

[BD-Rip] [360]谍影重重1.The Bourne Identity.2002.BluRay.1080p.x264.AC3-DiaosMan[mp4/6.2G][国英/

[复制链接]

发表在  2016-8-2 10:18:54 | 显示全部楼层 | 阅读模式

马上注册,结交更多好友,享用更多功能,让你轻松玩转社区。

您需要 登录 才可以下载或查看,没有帐号?立即注册  

x
-->在此声明DiaosMan官方发布专区为bger论坛,共享论坛为BTBBT、影视帝国。BT种子由蚂蚁高清代为制作,百度共享人名为mario5635,其他影视论坛网站及共享不表明出处,均为盗用!请大家转载时请在著名DiaosMan压制。
整剧均由DiaosMan个人压制完成。为更好控制文件大小,以H.264或HEVC(H.265)+硬字幕+AC3或AAC.MP4格式压制。
DiaosMan压制所用视频源和字幕均来自网络,如侵犯到任何个人或公司团体组织权益请及时与我留言,我将第一时间删除。

本片采用特效字幕来自CMCT。注:未经允许,不得转载,严禁盗用!




◎片  名 - 谍影重重
◎译  名 - The Bourne Identity
◎年  代 - 2002年6月14日
◎国  家 - 美国
◎语  言 - 国语、英语
◎IMDb链接 - http://www.imdb.com/title/tt0258463
◎片  长 - 119 分钟
◎导  演 - 道格·里曼
◎主  演–马特·达蒙,克里斯·库柏,弗兰卡·波坦特,朱丽娅·斯蒂尔斯
◎简  介 - 一只渔船在海上打捞上一个奄奄一息的男子,在救治过程中,发现男子身中数枪,并有刀痕。奇怪的是从臀部取出一个芯片,上面有瑞士苏黎士银行的一个帐号。在船员们精心的照料下,男子虽然身体康复,但是他已经失去了往日的记忆,不知自己是谁,叫什么名字!船在西班牙停泊后他前往瑞士苏黎士。由于没有证件只好睡在公园的长椅上,被执勤的警察叫醒,只想睡觉的他对警察的纠缠忍无可忍,动手打倒了警察。这时他发现自己不但武功高强,而且还会说多国语言。这令他莫名其妙……
与此同时,CIA(中央情报局)部署的一个被称为“绊脚石”的计划正在执行中,但是派出去的干员与CIA失去了联络,CIA十分焦急。
男子来到苏黎士银行写下了那个神秘的账号,按一切程序检测完毕以后,银行把保险箱拿给了他。打开保险箱后,他惊呆了,一把手枪、多国钞票、六国护照和一个巴黎的住址,而且六本护照上写的都是同一个名字——杰森·伯恩,这一切使他陷入了冒险的旅途。
在美国使馆内,伯恩认识了一个女孩叫玛莉。她正与工作人员争吵。伯恩的举动被安检人员发现,警察上前抓住伯恩,但都被他三拳两脚打翻在地,他逃出了使馆。
正当伯恩无处可逃之时,遇到在使馆见到的女孩玛莉,他请玛莉开车把自己送到巴黎,付一万美元,到巴黎之后再付一万美元,玛莉惊喜,同意将伯恩送到巴黎。
CIA的人也在寻找失踪的“伯恩”,因为伯恩是中情局的干员,被派出去执行被称为“绊脚石”的暗杀行动,但事情现己败露,CIA决定除掉伯恩,因此派人到处寻找伯恩。
玛莉开车送伯恩前往巴黎途中对他产生好感,决定帮助他。伯恩始终没有搞清那个帐号、护照等等是怎么回事。他拿着巴黎的地址穿过数条街道寻找门牌号。找到之后他稍做安顿,突然一个杀手闯了进来,经过一番激烈的撕打,杀手跳窗而逃。伯恩感到自己己被跟踪,带着玛莉马上离开了。伯恩劝告玛莉不要跟着他,否则很危险,自己则要留下来把事情搞清楚。但玛莉并没有离开伯恩,为了安全,伯恩给玛莉改变了发型。CIA在调查案子的同时,伯恩也在加速搞清事情真相。
沃姆伯西在家中被杀,CIA认为是伯恩干的,因此他一直都在被追杀。自己到底是谁?是在顶替谁?这一切令伯恩百思不得其解,他到过停尸间,走访过渔具商店经理和航海保全部,结果都令他很失望。伯恩被八方追击,玛莉决定带伯恩到朋友伊蒙家中暂避,但是在这里也同样被盯上了。伯恩拿出一笔钱让玛莉赶快逃离这里。伯恩告诉玛莉离开后千万不要同任何人联系。
伯恩电话中约CIA的头目在巴黎新桥见面。CIA趁此机会加大警力,一定要除掉伯恩,伯恩在与康(CIA的头目)对话中揭露了他的阴谋。

◎编码参数 -
General
Complete name                    : 谍影重重1.The Bourne Identity.2002.BluRay.1080p.x264.AC3.2Audios.中英特效-DiaosMan.mp4
Format                           : MPEG-4
Format profile                   : Base Media
Codec ID                         : isom
File size                        : 6.23 GiB
Duration                         : 1h 58mn
Overall bit rate                 : 7 516 Kbps
Encoded date                     : UTC 2016-07-30 07:36:45
Tagged date                      : UTC 2016-07-30 07:36:45

Video
ID                               : 1
Format                           : AVC
Format/Info                      : Advanced Video Codec
Format profile                   : High@L3.1
Format settings, CABAC           : Yes
Format settings, ReFrames        : 4 frames
Format settings, GOP             : M=4, N=58
Codec ID                         : avc1
Codec ID/Info                    : Advanced Video Coding
Duration                         : 1h 58mn
Bit rate mode                    : Variable
Bit rate                         : 7 001 Kbps
Maximum bit rate                 : 20.4 Mbps
Width                            : 1 920 pixels
Height                           : 1 080 pixels
Display aspect ratio             : 16:9
Frame rate mode                  : Constant
Frame rate                       : 23.976 fps
Color space                      : YUV
Chroma subsampling               : 4:2:0
Bit depth                        : 8 bits
Scan type                        : Progressive
Bits/(Pixel*Frame)               : 0.141
Stream size                      : 5.80 GiB (93%)
Writing library                  : x264 core 146
Encoding settings                : opencl=1 / cabac=1 / ref=1 / deblock=1:-1:-1 / analyse=0x3:0x113 / me=hex / subme=2 / psy=1 / psy_rd=1.00:0.15 / mixed_ref=0 / me_range=16 / chroma_me=1 / trellis=0 / 8x8dct=1 / cqm=0 / deadzone=21,11 / fast_pskip=1 / chroma_qp_offset=0 / threads=6 / lookahead_threads=2 / sliced_threads=0 / nr=0 / decimate=1 / interlaced=0 / bluray_compat=0 / constrained_intra=0 / bframes=3 / b_pyramid=2 / b_adapt=1 / b_bias=0 / direct=1 / weightb=1 / open_gop=0 / weightp=1 / keyint=250 / keyint_min=23 / scenecut=40 / intra_refresh=0 / rc_lookahead=10 / rc=crf / mbtree=1 / crf=19.0 / qcomp=0.60 / qpmin=0 / qpmax=69 / qpstep=4 / ip_ratio=1.40 / aq=1:1.00
Tagged date                      : UTC 2016-07-30 07:42:41

Audio #1
ID                               : 2
Format                           : AC-3
Format/Info                      : Audio Coding 3
Mode extension                   : CM (complete main)
Codec ID                         : ac-3
Duration                         : 1h 58mn
Bit rate mode                    : Constant
Bit rate                         : 256 Kbps
Maximum bit rate                 : 270 Kbps
Channel(s)                       : 6 channels
Channel positions                : Front: L C R, Side: L R, LFE
Sampling rate                    : 48.0 KHz
Bit depth                        : 16 bits
Compression mode                 : Lossy
Stream size                      : 217 MiB (3%)
Title                            : 国语 5.1
Language                         : Chinese
Encoded date                     : UTC 2016-07-30 07:41:47
Tagged date                      : UTC 2016-07-30 07:42:41

Audio #2
ID                               : 3
Format                           : AC-3
Format/Info                      : Audio Coding 3
Mode extension                   : CM (complete main)
Codec ID                         : ac-3
Duration                         : 1h 58mn
Bit rate mode                    : Constant
Bit rate                         : 256 Kbps
Maximum bit rate                 : 270 Kbps
Channel(s)                       : 6 channels
Channel positions                : Front: L C R, Side: L R, LFE
Sampling rate                    : 48.0 KHz
Bit depth                        : 16 bits
Compression mode                 : Lossy
Stream size                      : 217 MiB (3%)
Title                            : 英语 5.1
Language                         : English
Encoded date                     : UTC 2016-07-30 07:42:14
Tagged date                      : UTC 2016-07-30 07:42:41

◎视频截图












(下载后,扩展名为.mp4D改成.mp4即可)
360连接:https://yunpan.cn/c6Yi8thgVYuQS  访问密码 42b0
DiaosMan官方发布专区:http://bger.me/forum-90-1.html

发表回复

您需要登录后才可以回帖 登录 | 立即注册  

本版积分规则

无觅相关文章插件

快速回复 返回顶部 返回列表