返回列表 发新帖

[BD-Rip] [BT下载]月满荒原 Comanche.Moon.2008.Part3.1080p.BluRay.x264.DD5.1-FGT 10.3G

[复制链接]

发表在  2016-8-2 11:19:07 | 显示全部楼层 | 阅读模式
-->
◎译  名 月满荒原/月落古西原
◎片  名 Comanche Moon
◎年  代 2008
◎国  家 美国
◎类  别 剧情/西部
◎语  言 英语/Aboriginal/西班牙语/法语
◎上映日期 2008-01-13
◎IMDb评分  7.3/10 from 2,233 users
◎IMDb链接  http://www.imdb.com/title/tt0783328/
◎豆瓣评分 6.3/10 from 60 users
◎豆瓣链接 https://movie.douban.com/subject/2137142/
◎BT之家整理 http://www.btbbt.cc
◎集  数 3
◎片  长 360 分钟
◎导  演 Simon Wincer
◎主  演 Elizabeth Banks
      Toby Metcalf
      Keith Robinson


◎简  介


  CBS连续播出的三集(6小时)电视迷你剧《Comanche Moon 月落古西原》将带您回到那个古老苍茫的西部,在那里,文明与荒蛮,生活及梦想,伦理和欲望,将伴着西部的滚滚黄尘,震撼上演!!
  该剧根据Larry McMurtry的同名畅销书改编,该故事也是系列西部史诗小说《Lonesome Dove》的前篇。如今,CBS投入2700万美元拍摄,想延续1989年电视版《Lonesome Dove》勇夺多座艾美奖的辉煌。
  两名英勇的得克萨斯巡逻骑兵Gus(Steve Zahn)和Call(Karl Urban)受到征召,要随队剿灭三名危害一方的"不法之徒":印第安部落科曼奇族的传奇酋长Buffalo Hump;臭名昭著的科曼奇马贼Kicking Wolf;专门以折磨人为乐的墨西哥强盗头目Ahumado。骑兵队得到了颇有声望的墨西哥基卡普族追踪者Famous Shoes"名鞋"的帮助。Deets、Jake Spoon和Pea Eye Parker也自发加入了骑兵队,共同对抗为保护自己领地和生活方式不受干扰而誓死一搏的科曼奇人。他们与不法之徒在辽阔的西部荒野上展开了一场斗智斗勇的争夺。同时,两位骑兵也有心爱的女人和孩子,他们如何平衡犯罪挑战和情感生活呢? 美国贵族Inish Scull和美貌性感的妻子Inez又会上演怎样的情感纠葛?科曼奇人精通草原战法,勇猛骠悍,骑兵队又能否如愿以偿?


Video
ID                                       : 1
Format                                   : AVC
Format/Info                              : Advanced Video Codec
Format profile                           : High@L4.1
Format settings, CABAC                   : Yes
Format settings, ReFrames                : 4 frames
Codec ID                                 : V_MPEG4/ISO/AVC
Duration                                 : 1h 32mn
Bit rate                                 : 15.4 Mbps
Width                                    : 1 920 pixels
Height                                   : 1 080 pixels
Display aspect ratio                     : 16:9
Frame rate mode                          : Constant
Frame rate                               : 25.000 fps
Color space                              : YUV
Chroma subsampling                       : 4:2:0
Bit depth                                : 8 bits
Scan type                                : Progressive
Bits/(Pixel*Frame)                       : 0.297
Stream size                              : 9.69 GiB (94%)
Writing library                          : x264 core 146 r2538 121396c
Encoding settings                        : cabac=1 / ref=4 / deblock=1:-3:-3 / analyse=0x3:0x133 / me=umh / subme=10 / psy=1 / psy_rd=1.05:0.00 / mixed_ref=1 / me_range=48 / chroma_me=1 / trellis=2 / 8x8dct=1 / cqm=0 / deadzone=21,11 / fast_pskip=1 / chroma_qp_offset=-2 / threads=18 / lookahead_threads=3 / sliced_threads=0 / nr=0 / decimate=1 / interlaced=0 / bluray_compat=0 / constrained_intra=0 / bframes=9 / b_pyramid=2 / b_adapt=2 / b_bias=0 / direct=3 / weightb=1 / open_gop=0 / weightp=2 / keyint=250 / keyint_min=25 / scenecut=40 / intra_refresh=0 / rc_lookahead=60 / rc=2pass / mbtree=0 / bitrate=15400 / ratetol=1.0 / qcomp=0.60 / qpmin=0 / qpmax=69 / qpstep=4 / cplxblur=20.0 / qblur=0.5 / vbv_maxrate=62500 / vbv_bufsize=78125 / nal_hrd=none / filler=0 / ip_ratio=1.20 / pb_ratio=1.20 / aq=1:0.70
Language                                 : English
Default                                  : Yes
Forced                                   : No
Color range                              : Limited
Color primaries                          : BT.709
Transfer characteristics                 : BT.709
Matrix coefficients                      : BT.709

Audio
ID                                       : 2
Format                                   : AC-3
Format/Info                              : Audio Coding 3
Mode extension                           : CM (complete main)
Format settings, Endianness              : Big
Codec ID                                 : A_AC3
Duration                                 : 1h 32mn
Bit rate mode                            : Constant
Bit rate                                 : 640 Kbps
Channel(s)                               : 6 channels
Channel positions                        : Front: L C R, Side: L R, LFE
Sampling rate                            : 48.0 KHz
Frame rate                               : 31.250 fps (1536 spf)
Compression mode                         : Lossy
Stream size                              : 421 MiB (4%)
Language                                 : English
Default                                  : Yes
Forced                                   : No






       

本帖子中包含更多资源

您需要 登录 才可以下载或查看,没有帐号?立即注册  

x

发表回复

您需要登录后才可以回帖 登录 | 立即注册  

本版积分规则

无觅相关文章插件

快速回复 返回顶部 返回列表