返回列表 发新帖

[BD-Rip] [BT下载]战争之箭 War.Arrow.1953.1080p.BluRay.x264-RUSTED 5.46G

[复制链接]

发表在  2016-8-2 12:04:51 | 显示全部楼层 | 阅读模式
-->
◎译  名 战争之箭
◎片  名 War Arrow
◎年  代 1953
◎国  家 美国
◎语  言 英语
◎上映日期 1953-12-26
◎IMDb评分  5.8/10 from 481 users
◎IMDb链接  http://www.imdb.com/title/tt0046532/
◎BT之家整理 http://www.btbbt.cc
◎片  长 78分钟
◎导  演 George Sherman
◎主  演 Maureen O'Hara
      Jeff Chandler
      John McIntire
      Suzan Ball


◎简  介


  Major Howell Brady and two non-coms are assigned to go to Indian territory and recruit peaceful Seminoles relocated from Florida to aid the army in fighting the
larger| rampaging Kiowa tribe. Brady promises them better land than the subsistence reservation they have been assigned to. Maygro| their chief| although initially
reluctant| finally agrees for the good of his people. However| Brady's superior| Col. Jackson Meade| is hostile to the idea and distrusts having Indians as allies.
Beautiful widow Elaine Corwin| proves a pleasant distraction for Brady although her husband| a unrepentant Confederate whose body was never found| may still be alive
and leading the savage Kiowas against the hated Yankees.


ideo
ID                                       : 1
Format                                   : AVC
Format/Info                              : Advanced Video Codec
Format profile                           : High@L4.1
Format settings, CABAC                   : Yes
Format settings, ReFrames                : 4 frames
Codec ID                                 : V_MPEG4/ISO/AVC
Duration                                 : 1h 18mn
Bit rate                                 : 8 466 Kbps
Width                                    : 1 920 pixels
Height                                   : 1 040 pixels
Display aspect ratio                     : 1.85:1
Frame rate mode                          : Constant
Frame rate                               : 23.976 (24000/1001) fps
Color space                              : YUV
Chroma subsampling                       : 4:2:0
Bit depth                                : 8 bits
Scan type                                : Progressive
Bits/(Pixel*Frame)                       : 0.177
Stream size                              : 4.53 GiB (83%)
Writing library                          : x264 core 140 r2377 1ca7bb9
Encoding settings                        : cabac=1 / ref=4 / deblock=1:0:0 / analyse=0x3:0x133 / me=umh / subme=7 / psy=1 / psy_rd=1.00:0.00 / mixed_ref=1 / me_range=16 / chroma_me=1 / trellis=1 / 8x8dct=1 / cqm=0 / deadzone=21,11 / fast_pskip=0 / chroma_qp_offset=-2 / threads=18 / lookahead_threads=3 / sliced_threads=0 / nr=0 / decimate=1 / interlaced=0 / bluray_compat=0 / constrained_intra=0 / bframes=3 / b_pyramid=2 / b_adapt=1 / b_bias=0 / direct=1 / weightb=1 / open_gop=0 / weightp=1 / keyint=250 / keyint_min=23 / scenecut=40 / intra_refresh=0 / rc_lookahead=40 / rc=2pass / mbtree=1 / bitrate=8466 / ratetol=1.0 / qcomp=0.60 / qpmin=0 / qpmax=69 / qpstep=4 / cplxblur=20.0 / qblur=0.5 / ip_ratio=1.40 / aq=1:1.00
Language                                 : English
Default                                  : Yes
Forced                                   : No

Audio
ID                                       : 2
Format                                   : DTS
Format/Info                              : Digital Theater Systems
Mode                                     : 16
Format settings, Endianness              : Big
Codec ID                                 : A_DTS
Duration                                 : 1h 18mn
Bit rate mode                            : Constant
Bit rate                                 : 1 509 Kbps
Channel(s)                               : 2 channels
Channel positions                        : Front: L R
Sampling rate                            : 48.0 KHz
Frame rate                               : 93.750 fps (512 spf)
Bit depth                                : 16 bits
Compression mode                         : Lossy
Stream size                              : 846 MiB (15%)
Language                                 : English
Default                                  : Yes
Forced                                   : No

Menu
00:00:00.000                             : en:00:00:00.000
00:07:54.682                             : en:00:07:54.682
00:13:10.414                             : en:00:13:10.414
00:22:13.749                             : en:00:22:13.749
00:26:36.177                             : en:00:26:36.177
00:33:35.513                             : en:00:33:35.513
00:40:23.754                             : en:00:40:23.754
00:47:52.369                             : en:00:47:52.369
00:53:01.261                             : en:00:53:01.261
00:58:53.404                             : en:00:58:53.404
01:03:01.235                             : en:01:03:01.235
01:11:14.353                             : en:01:11:14.353








       

本帖子中包含更多资源

您需要 登录 才可以下载或查看,没有帐号?立即注册  

x

发表回复

您需要登录后才可以回帖 登录 | 立即注册  

本版积分规则

无觅相关文章插件

快速回复 返回顶部 返回列表