返回列表 发新帖

[BD-Rip] [BT下载]欢迎来到丛林 Welcome.to.the.Jungle.2013.1080p.BluRay.x264.DTS-FGT 7.15G

[复制链接]

发表在  2016-8-2 19:00:25 | 显示全部楼层 | 阅读模式
-->
◎译  名 欢迎来到丛林/欢迎到丛林来
◎片  名 Welcome to the Jungle
◎年  代 2013
◎国  家 英国
◎类  别 喜剧
◎语  言 英语
◎上映日期 2013-04-27
◎IMDb评分  5.0/10 from 9,527 users
◎IMDb链接  http://www.imdb.com/title/tt2193265/
◎豆瓣评分 4.7/10 from 322 users
◎豆瓣链接 https://movie.douban.com/subject/10486469/
◎BT之家整理  http://www.btbbt.cc
◎导  演 罗布·梅尔策 Rob Meltzer
◎主  演 尚格·云顿 Jean-Claude Van Damme
      亚当·布罗迪 Adam Brody
      罗布·许贝尔 Rob Huebel
      克里斯汀·沙尔 Kristen Schaal
      梅根·布恩 Megan Boone
      埃里克·埃德尔斯坦 Eric Edelstein
      丹尼斯·海斯伯特 Dennis Haysbert
      罗伯特·皮特斯 Robert Peters
      布赖恩·泰斯特 Brian Tester


◎简  介


  影片讲述了尚格·云顿饰演的体型健硕的培训讲师将为了培养公司员工的团队合作能力,而硬将众人拉到荒岛野外实战培训,面对野兽丛生的世界,一些列爆笑故事就此发生……


Video
ID                                       : 1
Format                                   : AVC
Format/Info                              : Advanced Video Codec
Format profile                           : High@L4
Format settings, CABAC                   : Yes
Format settings, ReFrames                : 5 frames
Codec ID                                 : V_MPEG4/ISO/AVC
Duration                                 : 1h 34mn
Bit rate                                 : 9 351 Kbps
Width                                    : 1 920 pixels
Height                                   : 800 pixels
Display aspect ratio                     : 2.40:1
Frame rate mode                          : Constant
Frame rate                               : 23.976 (24000/1001) fps
Color space                              : YUV
Chroma subsampling                       : 4:2:0
Bit depth                                : 8 bits
Scan type                                : Progressive
Bits/(Pixel*Frame)                       : 0.254
Stream size                              : 6.01 GiB (84%)
Writing library                          : x264 core 140 r2377 1ca7bb9
Encoding settings                        : cabac=1 / ref=5 / deblock=1:0:0 / analyse=0x3:0x133 / me=umh / subme=7 / psy=1 / psy_rd=1.00:0.00 / mixed_ref=1 / me_range=16 / chroma_me=1 / trellis=1 / 8x8dct=1 / cqm=0 / deadzone=21,11 / fast_pskip=0 / chroma_qp_offset=-2 / threads=6 / lookahead_threads=1 / sliced_threads=0 / nr=0 / decimate=1 / interlaced=0 / bluray_compat=0 / constrained_intra=0 / bframes=3 / b_pyramid=2 / b_adapt=2 / b_bias=0 / direct=3 / weightb=1 / open_gop=0 / weightp=2 / keyint=250 / keyint_min=23 / scenecut=40 / intra_refresh=0 / rc_lookahead=50 / rc=2pass / mbtree=1 / bitrate=9351 / ratetol=1.0 / qcomp=0.60 / qpmin=0 / qpmax=69 / qpstep=4 / cplxblur=20.0 / qblur=0.5 / ip_ratio=1.40 / aq=1:1.00
Language                                 : English
Default                                  : Yes
Forced                                   : No

Audio
ID                                       : 2
Format                                   : DTS
Format/Info                              : Digital Theater Systems
Mode                                     : 16
Format settings, Endianness              : Big
Codec ID                                 : A_DTS
Duration                                 : 1h 34mn
Bit rate mode                            : Constant
Bit rate                                 : 1 509 Kbps
Channel(s)                               : 6 channels
Channel positions                        : Front: L C R, Side: L R, LFE
Sampling rate                            : 48.0 KHz
Frame rate                               : 93.750 fps (512 spf)
Bit depth                                : 24 bits
Compression mode                         : Lossy
Stream size                              : 1 017 MiB (14%)
Language                                 : English
Default                                  : Yes
Forced                                   : No

Menu
00:00:00.000                             : en:00:00:00.000
00:07:37.415                             : en:00:07:37.415
00:16:20.813                             : en:00:16:20.813
00:22:29.431                             : en:00:22:29.431
00:30:31.872                             : en:00:30:31.872
00:37:32.167                             : en:00:37:32.167
00:44:06.727                             : en:00:44:06.727
00:54:38.901                             : en:00:54:38.901
01:05:44.983                             : en:01:05:44.983
01:10:06.452                             : en:01:10:06.452
01:24:13.632                             : en:01:24:13.632
01:28:57.916                             : en:01:28:57.916







       

本帖子中包含更多资源

您需要 登录 才可以下载或查看,没有帐号?立即注册  

x

发表于 2016-8-11 13:01:51 | 显示全部楼层
题材不错。

发表回复

您需要登录后才可以回帖 登录 | 立即注册  

本版积分规则

无觅相关文章插件

快速回复 返回顶部 返回列表