返回列表 发新帖

[BD-Rip] [BT下载]魔鬼悍将/矿战风云 Men.of.War.1994.1080p.BluRay.x264.DD2.0-FGT 8.08G

[复制链接]

发表在  2016-8-2 18:51:36 | 显示全部楼层 | 阅读模式
-->


◎译  名 魔鬼悍将/矿战风云
◎片  名 Men of War
◎年  代 1994
◎国  家 美国/西班牙
◎类  别 动作/剧情/惊悚
◎语  言 英语
◎上映日期 1994-09-03
◎IMDb评分  5.8/10 from 2,981 users
◎IMDb链接  http://www.imdb.com/title/tt0110490/
◎豆瓣评分 6.6/10 from 55 users
◎豆瓣链接 https://movie.douban.com/subject/1303760/
◎BT之家整理  http://www.btbbt.cc
◎片  长 103 分钟/Sweden: 99 分钟/Germany: 76 分钟(heavily cut) (TV version)
◎导  演 Perry Lang
◎主  演 杜夫·龙格尔 Dolph Lundgren
      黄荣亮 B.D. Wong
      Charlotte Lewis
      安东尼·约翰·邓尼森 Tony Denison
      蒂姆·金尼 Tim Guinee


◎简  介


  一退役庸兵,再度奉召,远赴南太平洋的小岛,说服该地岛民授权该岛矿产的开采权;由于该地岛民的纯朴与善良,使得"杜夫朗格"与其伙伴改变初衷,而决定留下保卫此岛的居民;因而引爆一场与恶势力阴谋的对抗



Video
ID                                       : 1
Format                                   : AVC
Format/Info                              : Advanced Video Codec
Format profile                           : High@L4.1
Format settings, CABAC                   : No
Format settings, ReFrames                : 5 frames
Codec ID                                 : V_MPEG4/ISO/AVC
Duration                                 : 1h 42mn
Bit rate                                 : 11.0 Mbps
Width                                    : 1 920 pixels
Height                                   : 856 pixels
Display aspect ratio                     : 2.25:1
Frame rate mode                          : Constant
Frame rate                               : 23.976 (24000/1001) fps
Color space                              : YUV
Chroma subsampling                       : 4:2:0
Bit depth                                : 8 bits
Scan type                                : Progressive
Bits/(Pixel*Frame)                       : 0.280
Stream size                              : 7.75 GiB (96%)
Writing library                          : x264 core 148 r2638 7599210
Encoding settings                        : cabac=0 / ref=5 / deblock=1:-3:-3 / analyse=0x3:0x113 / me=umh / subme=11 / psy=1 / psy_rd=1.10:0.25 / mixed_ref=1 / me_range=64 / chroma_me=1 / trellis=2 / 8x8dct=1 / cqm=0 / deadzone=21,11 / fast_pskip=0 / chroma_qp_offset=-4 / threads=12 / lookahead_threads=1 / sliced_threads=0 / nr=0 / decimate=1 / interlaced=0 / bluray_compat=0 / constrained_intra=0 / bframes=16 / b_pyramid=2 / b_adapt=1 / b_bias=0 / direct=1 / weightb=1 / open_gop=0 / weightp=2 / keyint=240 / keyint_min=23 / scenecut=40 / intra_refresh=0 / rc_lookahead=120 / rc=2pass / mbtree=1 / bitrate=11030 / ratetol=1.0 / qcomp=0.60 / qpmin=0 / qpmax=69 / qpstep=4 / cplxblur=20.0 / qblur=0.5 / vbv_maxrate=62500 / vbv_bufsize=78125 / nal_hrd=none / filler=0 / ip_ratio=1.40 / aq=2:1.00
Language                                 : English
Default                                  : Yes
Forced                                   : No

Audio
ID                                       : 2
Format                                   : AC-3
Format/Info                              : Audio Coding 3
Mode extension                           : CM (complete main)
Format settings, Endianness              : Big
Codec ID                                 : A_AC3
Duration                                 : 1h 42mn
Bit rate mode                            : Constant
Bit rate                                 : 224 Kbps
Channel(s)                               : 2 channels
Channel positions                        : Front: L R
Sampling rate                            : 48.0 KHz
Frame rate                               : 31.250 fps (1536 spf)
Compression mode                         : Lossy
Stream size                              : 165 MiB (2%)
Language                                 : English
Default                                  : Yes
Forced                                   : No

Menu
00:00:00.000                             : en:00:00:00.000
00:00:00.375                             : en:00:00:00.375
00:14:33.623                             : en:00:14:33.623
00:30:12.394                             : en:00:30:12.394
00:44:00.972                             : en:00:44:00.972
00:59:22.350                             : en:00:59:22.350
01:14:48.109                             : en:01:14:48.109
01:28:48.323                             : en:01:28:48.323
01:39:15.491                             : en:01:39:15.491







       

本帖子中包含更多资源

您需要 登录 才可以下载或查看,没有帐号?立即注册  

x

发表于 2016-8-24 00:58:54 | 显示全部楼层



非常感谢发布高清资源,楼主辛苦了!

发表回复

您需要登录后才可以回帖 登录 | 立即注册  

本版积分规则

无觅相关文章插件

快速回复 返回顶部 返回列表