返回列表 发新帖

[BD-Rip] [BT下载]利斧巨人:保罗班扬的愤怒 Bunyan.2013.1080p.BluRay.x264.DTS-FGT 5.2G

[复制链接]

发表在  2016-8-2 18:56:57 | 显示全部楼层 | 阅读模式
-->
◎译  名 利斧巨人:保罗班扬的愤怒
◎片  名 Bunyan
◎年  代 2013
◎国  家 美国
◎类  别 奇幻/恐怖
◎语  言 英语
◎IMDb评分  3.5/10 from 810 users
◎IMDb链接  http://www.imdb.com/title/tt1684548/
◎豆瓣评分 2.8/10 from 180 users
◎豆瓣链接 https://movie.douban.com/subject/20379346/
◎片  长 90分钟
◎导  演 Gary Jones
◎主  演 乔·艾斯特维兹 Joe Estevez
      Dan Haggerty
      Thomas Downey


◎简  介


  明尼苏达州阳光明媚的一天,霍克教官(托马斯·多尼 Thomas Downey 饰)引领马丁·威廉姆斯(Clifton Williams 饰)、K(克里斯蒂娜·考夫 Kristina Kopf 饰)、赛克斯莫特菲克(Jesse Kove 饰)、罗丝·威尔(Victoria Ramos 饰)和瑞特娜等五名年轻人来到了位于深山老林隐秘之处的营地,展开新兵训练。这几名年轻人性格张扬,各有心事,虽然心底极度抵触这样的强制兵役,可却无可奈何。幽静隐蔽的自然丛林,恐怖的气氛悄悄蔓延,这里隐藏着传说中的斧头巨人保罗班扬。
  行军训练开始,这几名新兵似乎闯入了巨人的领地,搅扰了他的宁静,无情杀戮拉开序幕,他们最终能否逃出生天?




Video
ID                                       : 1
Format                                   : AVC
Format/Info                              : Advanced Video Codec
Format profile                           : High@L4.1
Format settings, CABAC                   : Yes
Format settings, ReFrames                : 4 frames
Codec ID                                 : V_MPEG4/ISO/AVC
Duration                                 : 1h 30mn
Bit rate                                 : 6 595 Kbps
Width                                    : 1 920 pixels
Height                                   : 1 072 pixels
Display aspect ratio                     : 16:9
Frame rate mode                          : Constant
Frame rate                               : 23.976 (24000/1001) fps
Color space                              : YUV
Chroma subsampling                       : 4:2:0
Bit depth                                : 8 bits
Scan type                                : Progressive
Bits/(Pixel*Frame)                       : 0.134
Stream size                              : 4.15 GiB (80%)
Writing library                          : x264 core 144 r2525 40bb568
Encoding settings                        : cabac=1 / ref=4 / deblock=1:0:0 / analyse=0x3:0x113 / me=umh / subme=7 / psy=1 / psy_rd=1.00:0.00 / mixed_ref=1 / me_range=16 / chroma_me=1 / trellis=1 / 8x8dct=1 / cqm=0 / deadzone=21,11 / fast_pskip=0 / chroma_qp_offset=-2 / threads=6 / lookahead_threads=1 / sliced_threads=0 / nr=0 / decimate=1 / interlaced=0 / bluray_compat=0 / constrained_intra=0 / bframes=3 / b_pyramid=2 / b_adapt=1 / b_bias=0 / direct=1 / weightb=1 / open_gop=0 / weightp=2 / keyint=250 / keyint_min=23 / scenecut=40 / intra_refresh=0 / rc_lookahead=40 / rc=crf / mbtree=1 / crf=20.0 / qcomp=0.60 / qpmin=0 / qpmax=69 / qpstep=4 / ip_ratio=1.40 / aq=1:1.00
Default                                  : Yes
Forced                                   : No

Audio
ID                                       : 2
Format                                   : DTS
Format/Info                              : Digital Theater Systems
Mode                                     : 16
Format settings, Endianness              : Big
Codec ID                                 : A_DTS
Duration                                 : 1h 30mn
Bit rate mode                            : Constant
Bit rate                                 : 1 509 Kbps
Channel(s)                               : 6 channels
Channel positions                        : Front: L C R, Side: L R, LFE
Sampling rate                            : 48.0 KHz
Frame rate                               : 93.750 fps (512 spf)
Bit depth                                : 16 bits
Compression mode                         : Lossy
Stream size                              : 972 MiB (18%)
Language                                 : English
Default                                  : No
Forced                                   : No







       

本帖子中包含更多资源

您需要 登录 才可以下载或查看,没有帐号?立即注册  

x

发表回复

您需要登录后才可以回帖 登录 | 立即注册  

本版积分规则

无觅相关文章插件

快速回复 返回顶部 返回列表