返回列表 发新帖

[ReMux] [BT下载]河 River.2015.1080p.BluRay.REMUX.AVC.DTS-HD.MA.5.1-RARBG 20.17G

[复制链接]

发表在  2016-8-2 18:32:01 | 显示全部楼层 | 阅读模式
-->
◎译  名 河
◎片  名 River
◎年  代 2015
◎国  家 加拿大/老挝/泰国
◎类  别 惊悚
◎语  言 法语/泰语/英语/老挝语
◎上映日期 2015-09
◎IMDb评分  6.0/10 from 392 users
◎IMDb链接  http://www.imdb.com/title/tt4215810/
◎BT之家整理 http://www.btbbt.cc
◎片  长 95分钟
◎导  演 Jamie M. Dagg
◎主  演 罗西弗·萨瑟兰 Rossif Sutherland
      Douangmany Soliphanh
      Sara Botsford
      Ted Atherton
      David Soncin
      Aidan Gillett
      维他亚·潘斯林加姆 Vithaya Pansringarm
      Karen Glave
      Naliphone Siviengxay
      Yannawoutthi Chanthalungsy
      Amphaiphun Phommapunya


◎简  介


  In the south of Laos, an American volunteer doctor becomes a fugitive after he intervenes in the sexual assault of a young woman. When the assailant's body is pulled from the Mekong River, things quickly spiral out of control.


Video
ID                                       : 1
Format                                   : AVC
Format/Info                              : Advanced Video Codec
Format profile                           : High@L4.1
Format settings, CABAC                   : Yes
Format settings, ReFrames                : 4 frames
Codec ID                                 : V_MPEG4/ISO/AVC
Duration                                 : 1h 26mn
Bit rate mode                            : Variable
Maximum bit rate                         : 35.0 Mbps
Width                                    : 1 920 pixels
Height                                   : 1 080 pixels
Display aspect ratio                     : 16:9
Frame rate mode                          : Constant
Frame rate                               : 23.976 (24000/1001) fps
Standard                                 : NTSC
Color space                              : YUV
Chroma subsampling                       : 4:2:0
Bit depth                                : 8 bits
Scan type                                : Progressive
Title                                    : River.2015.1080p.BluRay.REMUX.AVC.DTS-HD.MA.5.1-RARBG
Language                                 : English
Default                                  : No
Forced                                   : No
Color range                              : Limited
Color primaries                          : BT.709
Transfer characteristics                 : BT.709
Matrix coefficients                      : BT.709

Audio #1
ID                                       : 2
Format                                   : DTS
Format/Info                              : Digital Theater Systems
Format profile                           : MA / Core
Mode                                     : 16
Format settings, Endianness              : Big
Codec ID                                 : A_DTS
Duration                                 : 1h 26mn
Bit rate mode                            : Variable / Constant
Bit rate                                 : Unknown / 1 509 Kbps
Channel(s)                               : 6 channels
Channel positions                        : Front: L C R, Side: L R, LFE
Sampling rate                            : 48.0 KHz
Frame rate                               : 93.750 fps (512 spf)
Bit depth                                : 16 bits
Compression mode                         : Lossless / Lossy
Title                                    : River.2015.1080p.BluRay.REMUX.AVC.DTS-HD.MA.5.1-RARBG
Default                                  : Yes
Forced                                   : No

Audio #2
ID                                       : 3
Format                                   : DTS
Format/Info                              : Digital Theater Systems
Mode                                     : 16
Format settings, Endianness              : Big
Codec ID                                 : A_DTS
Duration                                 : 1h 26mn
Bit rate mode                            : Constant
Bit rate                                 : 1 509 Kbps
Channel(s)                               : 6 channels
Channel positions                        : Front: L C R, Side: L R, LFE
Sampling rate                            : 48.0 KHz
Frame rate                               : 93.750 fps (512 spf)
Bit depth                                : 16 bits
Compression mode                         : Lossy
Stream size                              : 937 MiB (5%)
Title                                    : River.2015.1080p.BluRay.REMUX.AVC.DTS-HD.MA.5.1-RARBG
Default                                  : No
Forced                                   : No

Audio #3
ID                                       : 4
Format                                   : AC-3
Format/Info                              : Audio Coding 3
Mode extension                           : CM (complete main)
Format settings, Endianness              : Big
Codec ID                                 : A_AC3
Duration                                 : 1h 26mn
Bit rate mode                            : Constant
Bit rate                                 : 384 Kbps
Channel(s)                               : 2 channels
Channel positions                        : Front: L R
Sampling rate                            : 48.0 KHz
Frame rate                               : 31.250 fps (1536 spf)
Compression mode                         : Lossy
Stream size                              : 239 MiB (1%)
Title                                    : River.2015.1080p.BluRay.REMUX.AVC.DTS-HD.MA.5.1-RARBG
Default                                  : No
Forced                                   : No

Text
ID                                       : 5
Format                                   : PGS
Muxing mode                              : zlib
Codec ID                                 : S_HDMV/PGS
Codec ID/Info                            : Picture based subtitle format used on BDs/HD-DVDs
Title                                    : English-PGS
Language                                 : English
Default                                  : Yes
Forced                                   : No

Menu
00:00:00.000                             : en:Chapter 01
00:08:20.208                             : en:Chapter 02
00:17:33.635                             : en:Chapter 03
00:27:01.453                             : en:Chapter 04
00:38:59.378                             : en:Chapter 05
00:51:28.627                             : en:Chapter 06
01:00:40.928                             : en:Chapter 07
01:10:46.909                             : en:Chapter 08
01:22:35.909                             : en:Chapter 09





       

本帖子中包含更多资源

您需要 登录 才可以下载或查看,没有帐号?立即注册  

x

发表回复

您需要登录后才可以回帖 登录 | 立即注册  

本版积分规则

无觅相关文章插件

快速回复 返回顶部 返回列表