返回列表 发新帖

[WEB-DL] [BT下载]沙漠中的最后时日 Last.Days.in.the.Desert.2015.1080p.WEB-DL.DD5.1.H264-RARBG 3.4G

[复制链接]

发表在  2016-8-2 21:06:20 | 显示全部楼层 | 阅读模式
-->
◎译  名 沙漠中的最后时日/沙漠最后的日子
◎片  名 Last Days In The Desert
◎年  代 2015
◎国  家 美国
◎类  别 剧情/历史/冒险
◎语  言 英语
◎上映日期 2015-01-25(圣丹斯电影节)/2016-05-13(美国)
◎IMDb评分  5.8/10 from 479 users
◎IMDb链接  http://www.imdb.com/title/tt3513054/
◎豆瓣评分 5.0/10 from 12 users
◎豆瓣链接 https://movie.douban.com/subject/25823533/
◎BT之家整理 http://www.btbbt.cc
◎片  长 98分钟
◎导  演 罗德里格·加西亚 Rodrigo García
◎主  演 伊万·麦克格雷格 Ewan McGregor
      塞伦·希德 Ciarán Hinds
      泰伊·谢里丹 Tye Sheridan
      阿耶莱特·祖里尔 Ayelet Zurer


◎简  介


  《沙漠中的最后时日》讲述了由伊万·麦克格雷格饰演的耶稣在沙漠中斋戒40天,遭到恶魔蛊惑后,重新找回人性的故事,影片并非源自《圣经》,而是影片导演兼编剧罗德里格·加西亚想象出来的故事。值得一提的是,罗德里格·加西亚是已故文坛巨匠,《百年孤独》作者加西亚·马尔克斯的儿子,曾执导过口碑不俗的影片《雌雄莫辩》。




Video
ID                                       : 1
Format                                   : AVC
Format/Info                              : Advanced Video Codec
Format profile                           : High@L4
Format settings, CABAC                   : Yes
Format settings, ReFrames                : 5 frames
Codec ID                                 : V_MPEG4/ISO/AVC
Duration                                 : 1h 39mn
Bit rate                                 : 4 410 Kbps
Width                                    : 1 916 pixels
Height                                   : 796 pixels
Display aspect ratio                     : 2.40:1
Frame rate mode                          : Constant
Frame rate                               : 23.976 fps
Color space                              : YUV
Chroma subsampling                       : 4:2:0
Bit depth                                : 8 bits
Scan type                                : Progressive
Bits/(Pixel*Frame)                       : 0.121
Stream size                              : 3.07 GiB (90%)
Title                                    : Last.Days.in.the.Desert.2015.1080p.WEB-DL.DD5.1.H264-RARBG
Language                                 : English
Default                                  : Yes
Forced                                   : No
Color range                              : Limited
Color primaries                          : BT.709
Transfer characteristics                 : BT.709
Matrix coefficients                      : BT.709

Audio
ID                                       : 2
Format                                   : AC-3
Format/Info                              : Audio Coding 3
Mode extension                           : CM (complete main)
Format settings, Endianness              : Big
Codec ID                                 : A_AC3
Duration                                 : 1h 39mn
Bit rate mode                            : Constant
Bit rate                                 : 384 Kbps
Channel(s)                               : 6 channels
Channel positions                        : Front: L C R, Side: L R, LFE
Sampling rate                            : 48.0 KHz
Frame rate                               : 31.250 fps (1536 spf)
Compression mode                         : Lossy
Stream size                              : 274 MiB (8%)
Title                                    : Last.Days.in.the.Desert.2015.1080p.WEB-DL.DD5.1.H264-RARBG
Language                                 : English
Default                                  : Yes
Forced                                   : No

Text
ID                                       : 3
Format                                   : UTF-8
Codec ID                                 : S_TEXT/UTF8
Codec ID/Info                            : UTF-8 Plain Text
Language                                 : English
Default                                  : Yes
Forced                                   : No

Menu
00:00:00.000                             : en:Chapter 1
00:06:15.000                             : en:Chapter 2
00:10:21.000                             : en:Chapter 3
00:14:02.000                             : en:Chapter 4
00:19:48.000                             : en:Chapter 5
00:23:06.000                             : en:Chapter 6
00:27:48.000                             : en:Chapter 7
00:32:25.000                             : en:Chapter 8
00:38:52.000                             : en:Chapter 9
00:44:01.000                             : en:Chapter 10
00:49:34.000                             : en:Chapter 11
00:55:28.000                             : en:Chapter 12
01:00:56.000                             : en:Chapter 13
01:05:35.000                             : en:Chapter 14
01:14:00.000                             : en:Chapter 15
01:21:54.000                             : en:Chapter 16
01:30:34.000                             : en:Chapter 17
01:33:49.000                             : en:Chapter 18





       

本帖子中包含更多资源

您需要 登录 才可以下载或查看,没有帐号?立即注册  

x

发表回复

您需要登录后才可以回帖 登录 | 立即注册  

本版积分规则

无觅相关文章插件

快速回复 返回顶部 返回列表