返回列表 发新帖

[WEB-DL] [BT下载]病毒 Viral.2016.1080p.WEB-DL.DD5.1.H264-FGT 2.91G

[复制链接]

发表在  2016-8-2 21:07:43 | 显示全部楼层 | 阅读模式
-->
◎译  名 病毒
◎片  名 Viral
◎年  代 2016
◎国  家 美国
◎类  别 剧情/科幻/恐怖
◎语  言 英语
◎上映日期 2016-07-29(美国)
◎IMDb评分  5.6/10 from 163 users
◎IMDb链接  http://www.imdb.com/title/tt2597892/
◎豆瓣评分 4.9/10 from 26 users
◎豆瓣链接 https://movie.douban.com/subject/24698523/
◎BT之家整理 http://www.btbbt.cc
◎片  长 85分钟
◎导  演 Henry Joost / Ariel Schulman
◎主  演 安娜丽·提普顿 Analeigh Tipton
      索菲亚·布莱克-德埃利亚 Sofia Black-D'Elia
      迈克尔·凯利 Michael Kelly
      玛奇尼·冈·凯利 Machine Gun Kelly
      特拉维斯·托普 Travis Tope
      布里安娜·豪伊 Brianne Howey
      小约翰·科思伦 John Cothran Jr.
      Judyann Elder
      Philip Labes
      Jay Hieron
      Brendon Eggertsen
      Alizabeth Hamer
      Paul Lacovara
      Erik A. Williams
      Shawn Turner


◎简  介


  一种神秘病毒开始在一个小镇快速传染,并致使大多数居民死亡。年轻女孩Emma在病毒隔离区里记录她家庭的新生活,并试图保护被病毒感染的妹妹Stacey...



Video
ID                                       : 1
Format                                   : AVC
Format/Info                              : Advanced Video Codec
Format profile                           : High@L4
Format settings, CABAC                   : Yes
Format settings, ReFrames                : 5 frames
Codec ID                                 : V_MPEG4/ISO/AVC
Duration                                 : 1h 25mn
Bit rate                                 : 4 368 Kbps
Width                                    : 1 908 pixels
Height                                   : 800 pixels
Display aspect ratio                     : 2.40:1
Frame rate mode                          : Constant
Frame rate                               : 23.976 fps
Color space                              : YUV
Chroma subsampling                       : 4:2:0
Bit depth                                : 8 bits
Scan type                                : Progressive
Bits/(Pixel*Frame)                       : 0.119
Stream size                              : 2.62 GiB (90%)
Title                                    : Viral.2016.1080p.WEB-DL.DD5.1.H264-FGT
Language                                 : English
Default                                  : Yes
Forced                                   : No
Color range                              : Limited
Color primaries                          : BT.709
Transfer characteristics                 : BT.709
Matrix coefficients                      : BT.709

Audio
ID                                       : 2
Format                                   : AC-3
Format/Info                              : Audio Coding 3
Mode extension                           : CM (complete main)
Format settings, Endianness              : Big
Codec ID                                 : A_AC3
Duration                                 : 1h 25mn
Bit rate mode                            : Constant
Bit rate                                 : 384 Kbps
Channel(s)                               : 6 channels
Channel positions                        : Front: L C R, Side: L R, LFE
Sampling rate                            : 48.0 KHz
Frame rate                               : 31.250 fps (1536 spf)
Compression mode                         : Lossy
Stream size                              : 236 MiB (8%)
Title                                    : Viral.2016.1080p.WEB-DL.DD5.1.H264-FGT
Language                                 : English
Default                                  : Yes
Forced                                   : No

Text
ID                                       : 3
Format                                   : UTF-8
Codec ID                                 : S_TEXT/UTF8
Codec ID/Info                            : UTF-8 Plain Text
Language                                 : English
Default                                  : Yes
Forced                                   : No

Menu
00:00:00.000                             : en:Chapter 1
00:05:41.925                             : en:Chapter 2
00:12:29.332                             : en:Chapter 3
00:16:41.876                             : en:Chapter 4
00:21:07.474                             : en:Chapter 5
00:27:25.602                             : en:Chapter 6
00:33:13.741                             : en:Chapter 7
00:39:08.679                             : en:Chapter 8
00:45:29.976                             : en:Chapter 9
00:49:49.026                             : en:Chapter 10
00:54:15.250                             : en:Chapter 11
01:00:21.574                             : en:Chapter 12
01:05:46.398                             : en:Chapter 13
01:11:06.050                             : en:Chapter 14
01:18:18.148                             : en:Chapter 15
01:22:01.120                             : en:Chapter 16





       

本帖子中包含更多资源

您需要 登录 才可以下载或查看,没有帐号?立即注册  

x

发表回复

您需要登录后才可以回帖 登录 | 立即注册  

本版积分规则

无觅相关文章插件

快速回复 返回顶部 返回列表