返回列表 发新帖

[WEB-DL] [BT下载]凛冬边缘 Edge.of.Winter.2016.1080p.WEB-DL.DD5.1.H264-FGT 2.98G

[复制链接]

发表在  2016-8-2 22:12:36 | 显示全部楼层 | 阅读模式

马上注册,结交更多好友,享用更多功能,让你轻松玩转社区。

您需要 登录 才可以下载或查看,没有帐号?立即注册  

x
-->
◎译  名 凛冬边缘
◎片  名 Edge of Winter
◎年  代 2016
◎国  家 加拿大/美国
◎类  别 剧情/惊悚
◎语  言 英语
◎上映日期 2016-08-12(美国)
◎IMDb链接  http://imdb.com/title/tt4526546/
◎BT之家整理 http://www.btbbt.cc
◎片  长 89分钟
◎导  演 罗布·康诺利 Rob Connolly
◎主  演 乔尔·金纳曼 Joel Kinnaman
      汤姆·霍兰德 Tom Holland
      蕾切尔·勒费夫尔 Rachelle Lefevre
      希罗·弗南德兹 Shiloh Fernandez
      罗西弗·萨瑟兰 Rossif Sutherland
      肖恩·本森 Shaun Benson
      帕特里克·加洛 Patrick Garrow


◎简  介


  一名刚离婚又失业的男子带两个儿子开车出去玩,还带了枪说教他们射击。但路上险象环生,兄弟俩发现:面临抚养权危机、害怕失去他俩的父亲变得很危险…




Video
ID                                       : 1
Format                                   : AVC
Format/Info                              : Advanced Video Codec
Format profile                           : High@L4
Format settings, CABAC                   : Yes
Format settings, ReFrames                : 5 frames
Codec ID                                 : V_MPEG4/ISO/AVC
Duration                                 : 1h 28mn
Bit rate                                 : 4 332 Kbps
Width                                    : 1 916 pixels
Height                                   : 806 pixels
Display aspect ratio                     : 2.40:1
Frame rate mode                          : Constant
Frame rate                               : 23.976 fps
Color space                              : YUV
Chroma subsampling                       : 4:2:0
Bit depth                                : 8 bits
Scan type                                : Progressive
Bits/(Pixel*Frame)                       : 0.117
Stream size                              : 2.69 GiB (90%)
Title                                    : Edge.of.Winter.2016.1080p.WEB-DL.DD5.1.H264-FGT
Language                                 : English
Default                                  : Yes
Forced                                   : No
Color range                              : Limited
Color primaries                          : BT.709
Transfer characteristics                 : BT.709
Matrix coefficients                      : BT.709

Audio
ID                                       : 2
Format                                   : AC-3
Format/Info                              : Audio Coding 3
Mode extension                           : CM (complete main)
Format settings, Endianness              : Big
Codec ID                                 : A_AC3
Duration                                 : 1h 28mn
Bit rate mode                            : Constant
Bit rate                                 : 384 Kbps
Channel(s)                               : 6 channels
Channel positions                        : Front: L C R, Side: L R, LFE
Sampling rate                            : 48.0 KHz
Frame rate                               : 31.250 fps (1536 spf)
Compression mode                         : Lossy
Stream size                              : 244 MiB (8%)
Title                                    : Edge.of.Winter.2016.1080p.WEB-DL.DD5.1.H264-FGT
Language                                 : English
Default                                  : Yes
Forced                                   : No

Text
ID                                       : 3
Format                                   : UTF-8
Codec ID                                 : S_TEXT/UTF8
Codec ID/Info                            : UTF-8 Plain Text
Language                                 : English
Default                                  : Yes
Forced                                   : No

Menu
00:00:00.000                             : en:1
00:03:58.905                             : en:2
00:07:40.751                             : en:3
00:14:11.600                             : en:4
00:21:30.288                             : en:5
00:24:51.364                             : en:6
00:32:48.799                             : en:7
00:36:42.073                             : en:8
00:40:55.076                             : en:9
00:44:47.475                             : en:10
00:50:53.883                             : en:11
00:57:24.815                             : en:12
01:03:27.928                             : en:13
01:10:00.570                             : en:14
01:15:48.251                             : en:15
01:21:28.674                             : en:16




发表于 2016-8-2 22:29:18 | 显示全部楼层
谢谢分享精彩好片

发表回复

您需要登录后才可以回帖 登录 | 立即注册  

本版积分规则

无觅相关文章插件

快速回复 返回顶部 返回列表