返回列表 发新帖

[WEB-DL] [BT下载]谢丽 Shelley.2016.1080p.WEB-DL.DD5.1.H264-RARBG 3.37G

[复制链接]

发表在  2016-8-2 21:44:10 | 显示全部楼层 | 阅读模式
-->
◎译  名 谢丽
◎片  名 Shelley
◎年  代 2016
◎国  家 丹麦/瑞典
◎类  别 剧情/恐怖
◎语  言 丹麦语/英语
◎上映日期 2016-02-14(柏林电影节)
◎IMDb评分  6.7/10 from 79 users
◎IMDb链接  http://www.imdb.com/title/tt5013688/
◎BT之家整理 http://www.btbbt.cc
◎片  长 92分钟
◎导  演 Ali Abbasi
◎主  演 艾伦·多丽特·彼得森 Ellen Dorrit Petersen
      考斯米娜·斯特拉坦 Cosmina Stratan
      Peter Christoffersen


◎简  介


  Louise and Kasper, a Danish couple, live in an isolated villa in the middle of the forest away from modern life, technology and even electricity. Louise's biggest dream is to become a mother but she is unable to have children. She finally decides, out of desperation, to seal a pact with her Romanian maid, Elena. Elena accepts to bear Louise's child as a surrogate mother in exchange of a large amount of money. The life growing inside of her is taking shape too fast, affecting the lives of everyone like an evil force. Paranoia and horror sets around the inevitable birth...


Video
ID                                       : 1
Format                                   : AVC
Format/Info                              : Advanced Video Codec
Format profile                           : High@L4
Format settings, CABAC                   : Yes
Format settings, ReFrames                : 4 frames
Codec ID                                 : V_MPEG4/ISO/AVC
Duration                                 : 1h 32mn
Bit rate                                 : 4 732 Kbps
Width                                    : 1 920 pixels
Height                                   : 1 040 pixels
Display aspect ratio                     : 1.85:1
Frame rate mode                          : Constant
Frame rate                               : 24.000 fps
Color space                              : YUV
Chroma subsampling                       : 4:2:0
Bit depth                                : 8 bits
Scan type                                : Progressive
Bits/(Pixel*Frame)                       : 0.099
Stream size                              : 3.05 GiB (91%)
Title                                    : Shelley.2016.1080p.WEB-DL.DD5.1.H264-RARBG
Language                                 : English
Default                                  : Yes
Forced                                   : No
Color range                              : Limited
Color primaries                          : BT.709
Transfer characteristics                 : BT.709
Matrix coefficients                      : BT.709

Audio
ID                                       : 2
Format                                   : AC-3
Format/Info                              : Audio Coding 3
Mode extension                           : CM (complete main)
Format settings, Endianness              : Big
Codec ID                                 : A_AC3
Duration                                 : 1h 32mn
Bit rate mode                            : Constant
Bit rate                                 : 384 Kbps
Channel(s)                               : 6 channels
Channel positions                        : Front: L C R, Side: L R, LFE
Sampling rate                            : 48.0 KHz
Frame rate                               : 31.250 fps (1536 spf)
Compression mode                         : Lossy
Stream size                              : 254 MiB (7%)
Title                                    : Shelley.2016.1080p.WEB-DL.DD5.1.H264-RARBG
Language                                 : English
Default                                  : Yes
Forced                                   : No

Text
ID                                       : 3
Format                                   : UTF-8
Codec ID                                 : S_TEXT/UTF8
Codec ID/Info                            : UTF-8 Plain Text
Language                                 : English
Default                                  : Yes
Forced                                   : No

Menu
00:00:00.000                             : en:1
00:12:04.000                             : en:2
00:24:08.000                             : en:3
00:36:28.000                             : en:4
00:45:38.000                             : en:5
00:56:06.000                             : en:6
01:08:25.000                             : en:7
01:19:08.000                             : en:8
01:29:07.000                             : en:9






       

本帖子中包含更多资源

您需要 登录 才可以下载或查看,没有帐号?立即注册  

x

发表回复

您需要登录后才可以回帖 登录 | 立即注册  

本版积分规则

无觅相关文章插件

快速回复 返回顶部 返回列表