返回列表 发新帖

[HDTV] [BT下载]独立日2:卷土重来[韩版]2016.720p.HDRip.KORSUB.x264.AAC2.0-STUTTERSHIT 3.1G

[复制链接]

发表在  2016-8-2 22:21:51 | 显示全部楼层 | 阅读模式
-->韩版 不喜勿下

◎译  名 独立日:卷土重来/独立日2/天煞-地球反击战2(港)/ID4星际重生(台)/独立日2:卷土重来/独立日2:复活/独立日:永恒1/天煞-地球反击战2
◎片  名 Independence Day: Resurgence
◎年  代 2016
◎国  家 美国
◎类  别 动作/科幻/冒险/灾难
◎语  言 英语/汉语普通话/阿拉伯语
◎上映日期 2016-06-24(中国大陆/美国)
◎IMDb评分  5.6/10 from 46,565 users
◎IMDb链接  http://www.imdb.com/title/tt1628841/
◎豆瓣评分 5.9/10 from 44,083 users
◎豆瓣链接 https://movie.douban.com/subject/4811813/
◎BT之家整理 http://www.btbbt.cc
◎片  长 120分钟
◎导  演 罗兰·艾默里奇 Roland Emmerich
◎主  演 利亚姆·海姆斯沃斯 Liam Hemsworth
      杰夫·高布伦 Jeff Goldblum
      比尔·普尔曼 Bill Pullman
      麦卡·梦露 Maika Monroe
      杰西·厄舍 Jessie Usher
      特拉维斯·托普 Travis Tope
      威廉·菲德内尔 William Fichtner
      夏洛特·甘斯布 Charlotte Gainsbourg
      贾德·赫希 Judd Hirsch
      雪拉·渥德 Sela Ward
      布伦特·斯皮内 Brent Spiner
      杨颖 Angelababy
      薇薇卡·福克斯 Vivica A. Fox
      乔伊·金 Joey King
      麦肯娜·格瑞丝 Mckenna Grace
      道比·欧帕瑞 Deobia Oparei
      罗恩·袁 Ron Yuan
      史蒂芬·布莱克史密斯 Steven Blacksmith


◎简  介


  经历过外星人大举入侵地球后,人类知道,这些入侵者有一天一定会再回来。人类运用先前外星人所遗留下来的科技文明,发展出一套强大的地球防御系统以抵御外星人的再度入侵。然而,20年后,这些外星人却带着人类前所未见、更先进强大的武力再次入侵地球,带来更大的全球灾难,几位勇敢的年轻人,他们挺身而出,将再一次为人类生存而战斗……



Video
ID                                       : 1
Format                                   : AVC
Format/Info                              : Advanced Video Codec
Format profile                           : High@L4.1
Format settings, CABAC                   : Yes
Format settings, ReFrames                : 4 frames
Codec ID                                 : avc1
Codec ID/Info                            : Advanced Video Coding
Duration                                 : 1h 59mn
Bit rate                                 : 3 500 Kbps
Width                                    : 1 280 pixels
Height                                   : 720 pixels
Display aspect ratio                     : 16:9
Frame rate mode                          : Constant
Frame rate                               : 29.970 (30000/1001) fps
Color space                              : YUV
Chroma subsampling                       : 4:2:0
Bit depth                                : 8 bits
Scan type                                : Progressive
Bits/(Pixel*Frame)                       : 0.127
Stream size                              : 2.91 GiB (94%)
Title                                    : Independence.Day.Resurgence.2016.720p.HDRip.KORSUB.x264.AAC2.0-STUTTERSHIT
Writing library                          : x264 core 148 r2694 3b70645
Encoding settings                        : cabac=1 / ref=4 / deblock=1:0:0 / analyse=0x3:0x113 / me=umh / subme=8 / psy=1 / psy_rd=1.00:0.00 / mixed_ref=1 / me_range=16 / chroma_me=1 / trellis=1 / 8x8dct=1 / cqm=0 / deadzone=21,11 / fast_pskip=1 / chroma_qp_offset=-2 / threads=40 / lookahead_threads=5 / sliced_threads=0 / nr=0 / decimate=1 / interlaced=0 / bluray_compat=0 / constrained_intra=0 / bframes=3 / b_pyramid=2 / b_adapt=2 / b_bias=0 / direct=3 / weightb=1 / open_gop=0 / weightp=2 / keyint=250 / keyint_min=25 / scenecut=40 / intra_refresh=0 / rc_lookahead=50 / rc=abr / mbtree=1 / bitrate=3500 / ratetol=1.0 / qcomp=0.60 / qpmin=0 / qpmax=69 / qpstep=4 / ip_ratio=1.40 / aq=1:1.00

Audio
ID                                       : 2
Format                                   : AAC
Format/Info                              : Advanced Audio Codec
Format profile                           : LC
Codec ID                                 : 40
Duration                                 : 1h 59mn
Bit rate mode                            : Constant
Bit rate                                 : 224 Kbps
Channel(s)                               : 2 channels
Channel positions                        : Front: L R
Sampling rate                            : 44.1 KHz
Frame rate                               : 43.066 fps (1024 spf)
Compression mode                         : Lossy
Stream size                              : 191 MiB (6%)
Title                                    : Independence.Day.Resurgence.2016.720p.HDRip.KORSUB.x264.AAC2.0-STUTTERSHIT
Default                                  : Yes
Alternate group                          : 1







       

本帖子中包含更多资源

您需要 登录 才可以下载或查看,没有帐号?立即注册  

x

发表于 2016-8-3 01:39:34 | 显示全部楼层
有中文字幕吗

发表于 2016-8-3 07:26:42 | 显示全部楼层

发表于 2016-8-4 13:53:11 | 显示全部楼层
速度真快啊~来不及去电影院看~正好~感谢楼主分享~

发表于 2016-8-10 21:22:48 | 显示全部楼层

发表回复

您需要登录后才可以回帖 登录 | 立即注册  

本版积分规则

无觅相关文章插件

快速回复 返回顶部 返回列表