返回列表 发新帖

[BD-Rip] [BT下载]放声大笑/美国版母女情深/恋爱LOL LOL.2012.1080p.BluRay.x264.DTS-FGT 6.09G

[复制链接]

发表在  2016-8-3 21:46:56 | 显示全部楼层 | 阅读模式
-->
◎译  名 放声大笑/美国版母女情深/恋爱LOL
◎片  名 LOL
◎年  代 2012
◎国  家 美国
◎类  别 剧情/喜剧/爱情
◎语  言 英语
◎上映日期 2012-05-04(美国)
◎IMDb评分  4.3/10 from 45,044 users
◎IMDb链接  http://www.imdb.com/title/tt1592873/
◎豆瓣评分 6.2/10 from 2,048 users
◎豆瓣链接 https://movie.douban.com/subject/4301248/
◎片  长 1h 38mn
◎片  长 97分钟
◎导  演 丽萨·阿祖洛斯 Lisa Azuelos
◎主  演 让-卢克·比洛多 Jean-Luc Bilodeau
      道格拉斯·布斯 Douglas Booth
      Vivian Le Borgne
      Bridget Brown
      Jim Carrane
      Woody Carter
      麦莉·赛勒斯 Miley Cyrus
      Felix Dayan
      Sam Derence
      诺拉·邓恩 Nora Dunn
      琳娜·埃斯科 Lina Esco
      Trevor Fahnstrom
      George Finn
      Rebecca Finnegan
      Alix Freihage
      阿什丽·欣肖 Ashley Hinshaw


◎简  介


  这部青春喜剧片讲述的是互联网和网络无所不在的当下,高中女生劳拉和她的死党们一边要忙于应付学校的压力和同窗好友的罗曼蒂克,一边还要与落伍的父母怎样才能和谐相处的故事。


◎获奖情况


  第14届美国青少年选择奖  (2012)
  最佳爱情片女演员(提名) 麦莉·赛勒斯




Video
ID                                       : 1
Format                                   : AVC
Format/Info                              : Advanced Video Codec
Format profile                           : High@L4.1
Format settings, CABAC                   : Yes
Format settings, ReFrames                : 5 frames
Codec ID                                 : V_MPEG4/ISO/AVC
Duration                                 : 1h 36mn
Bit rate                                 : 7 500 Kbps
Width                                    : 1 920 pixels
Height                                   : 800 pixels
Display aspect ratio                     : 2.40:1
Frame rate mode                          : Constant
Frame rate                               : 24.000 fps
Color space                              : YUV
Chroma subsampling                       : 4:2:0
Bit depth                                : 8 bits
Scan type                                : Progressive
Bits/(Pixel*Frame)                       : 0.203
Stream size                              : 4.95 GiB (81%)
Writing library                          : x264 core 142 r2479 dd79a61
Encoding settings                        : cabac=1 / ref=5 / deblock=1:-1:-1 / analyse=0x3:0x133 / me=umh / subme=9 / psy=1 / psy_rd=1.00:0.15 / mixed_ref=1 / me_range=16 / chroma_me=1 / trellis=2 / 8x8dct=1 / cqm=0 / deadzone=21,11 / fast_pskip=1 / chroma_qp_offset=-3 / threads=24 / lookahead_threads=2 / sliced_threads=0 / nr=0 / decimate=1 / interlaced=0 / bluray_compat=0 / constrained_intra=0 / bframes=3 / b_pyramid=2 / b_adapt=2 / b_bias=0 / direct=3 / weightb=1 / open_gop=0 / weightp=2 / keyint=240 / keyint_min=24 / scenecut=40 / intra_refresh=0 / rc_lookahead=60 / rc=2pass / mbtree=1 / bitrate=7500 / ratetol=1.0 / qcomp=0.60 / qpmin=0 / qpmax=69 / qpstep=4 / cplxblur=20.0 / qblur=0.5 / vbv_maxrate=62500 / vbv_bufsize=78125 / nal_hrd=none / filler=0 / ip_ratio=1.40 / aq=1:1.00
Language                                 : English
Default                                  : Yes
Forced                                   : No
Color range                              : Limited
Color primaries                          : BT.709
Transfer characteristics                 : BT.709
Matrix coefficients                      : BT.709

Audio
ID                                       : 2
Format                                   : DTS
Format/Info                              : Digital Theater Systems
Mode                                     : 16
Format settings, Endianness              : Big
Codec ID                                 : A_DTS
Duration                                 : 1h 36mn
Bit rate mode                            : Constant
Bit rate                                 : 1 509 Kbps
Channel(s)                               : 6 channels
Channel positions                        : Front: L C R, Side: L R, LFE
Sampling rate                            : 48.0 KHz
Frame rate                               : 93.750 fps (512 spf)
Bit depth                                : 16 bits
Compression mode                         : Lossy
Delay relative to video                  : -83ms
Stream size                              : 1.02 GiB (17%)
Language                                 : English
Default                                  : Yes
Forced                                   : No





       

本帖子中包含更多资源

您需要 登录 才可以下载或查看,没有帐号?立即注册  

x

发表于 2016-8-24 00:59:24 | 显示全部楼层



非常感谢发布高清资源,楼主辛苦了!

发表回复

您需要登录后才可以回帖 登录 | 立即注册  

本版积分规则

无觅相关文章插件

快速回复 返回顶部 返回列表