返回列表 发新帖

[BD-Rip] [BT下载]龙黄蜂 Dragon.Wasps.2012.1080p.BluRay.x264.DTS-FGT 4.37G

[复制链接]

发表在  2016-8-3 21:07:03 | 显示全部楼层 | 阅读模式
-->
◎译  名 龙黄蜂
◎片  名 Dragon Wasps
◎年  代 2012
◎国  家 美国
◎类  别 科幻
◎语  言 英语
◎上映日期 2012-12-01(美国)
◎IMDb评分  3.0/10 from 814 users
◎IMDb链接  http://www.imdb.com/title/tt2170371/
◎豆瓣评分 3.0/10 from 152 users
◎豆瓣链接 https://movie.douban.com/subject/19999409/
◎片  长 1h 38mn
◎片  长 84分钟
◎导  演 乔·尼 Joe Knee
◎主  演 柯林·纳麦克 Corin Nemec
      Dominika Juillet
      Benjamin Easterday
      Nikolette Noel
      Cosondra Sjostrom


◎简  介


  隶属试剂盒科技公司的生物工程科学家赫伯特(David Staszko 饰)在深入伯利兹雨林考察期间遭遇神形硕大的杀人蜂,旋即人间蒸发,生死不明。三个月后,该科学家的相关资料传到他的女儿——美丽的昆虫学家吉娜·汉弗莱斯(Dominika Juillet 饰)手中。她从中大致确定了父亲失踪的地点,虽然那是一片禁止入内的区域,可是这个继承了父亲冒险精神的女子还是和助手朗达(Nikolette Noel 饰)闯入禁区。此时此刻,当地正处于战争动乱时期,她们成功说服驻扎当地的军官约翰(Corin Nemec 饰),随部队深入雨林。
  然而等待这群人的不只是敌人的枪林弹雨,更有巨蜂群的无情袭击,他们面临最凶险的处境……



Video
ID                                       : 1
Format                                   : AVC
Format/Info                              : Advanced Video Codec
Format profile                           : High@L4.1
Format settings, CABAC                   : Yes
Format settings, ReFrames                : 4 frames
Codec ID                                 : V_MPEG4/ISO/AVC
Duration                                 : 1h 24mn
Bit rate                                 : 6 515 Kbps
Width                                    : 1 920 pixels
Height                                   : 1 080 pixels
Display aspect ratio                     : 16:9
Frame rate mode                          : Constant
Frame rate                               : 23.976 fps
Color space                              : YUV
Chroma subsampling                       : 4:2:0
Bit depth                                : 8 bits
Scan type                                : Progressive
Bits/(Pixel*Frame)                       : 0.131
Stream size                              : 3.83 GiB (88%)
Writing library                          : x264 core 138 r2358 9e941d1
Encoding settings                        : cabac=1 / ref=4 / deblock=1:0:0 / analyse=0x3:0x113 / me=umh / subme=7 / psy=1 / psy_rd=1.00:0.00 / mixed_ref=1 / me_range=16 / chroma_me=1 / trellis=1 / 8x8dct=1 / cqm=0 / deadzone=21,11 / fast_pskip=0 / chroma_qp_offset=-2 / threads=18 / lookahead_threads=3 / sliced_threads=0 / nr=0 / decimate=1 / interlaced=0 / bluray_compat=0 / constrained_intra=0 / bframes=3 / b_pyramid=2 / b_adapt=1 / b_bias=0 / direct=1 / weightb=1 / open_gop=0 / weightp=2 / keyint=250 / keyint_min=23 / scenecut=40 / intra_refresh=0 / rc_lookahead=40 / rc=crf / mbtree=1 / crf=20.0 / qcomp=0.60 / qpmin=0 / qpmax=69 / qpstep=4 / ip_ratio=1.40 / aq=1:1.00
Language                                 : English
Default                                  : No
Forced                                   : No

Audio
ID                                       : 2
Format                                   : DTS
Format/Info                              : Digital Theater Systems
Mode                                     : 16
Format settings, Endianness              : Big
Codec ID                                 : A_DTS
Duration                                 : 1h 24mn
Bit rate mode                            : Constant
Bit rate                                 : 768 Kbps
Channel(s)                               : 6 channels
Channel positions                        : Front: L C R, Side: L R, LFE
Sampling rate                            : 48.0 KHz
Frame rate                               : 93.750 fps (512 spf)
Bit depth                                : 16 bits
Compression mode                         : Lossy
Stream size                              : 463 MiB (10%)
Language                                 : English
Default                                  : No
Forced                                   : No






       

本帖子中包含更多资源

您需要 登录 才可以下载或查看,没有帐号?立即注册  

x

发表回复

您需要登录后才可以回帖 登录 | 立即注册  

本版积分规则

无觅相关文章插件

快速回复 返回顶部 返回列表