返回列表 发新帖

[BD-Rip] [BT下载]仙履奇缘2:美梦成真 Cinderella.II.2002.1080p.BluRay.x264.DTS-FGT 4.01G

[复制链接]

发表在  2016-8-3 22:19:03 | 显示全部楼层 | 阅读模式
-->
◎译  名 仙履奇缘2:美梦成真/灰姑娘2:美梦成真
◎片  名 Cinderella II: Dreams Come True
◎年  代 2002
◎国  家 美国
◎类  别 动画/家庭/奇幻/爱情
◎语  言 英语
◎上映日期 2002-02-26(美国)
◎IMDb评分  4.9/10 from 6,813 users
◎IMDb链接  http://www.imdb.com/title/tt0291082/
◎豆瓣评分 6.7/10 from 1,559 users
◎豆瓣链接 https://movie.douban.com/subject/1401601/
◎片  长 69分钟
◎导  演 John Kafka
◎主  演 詹妮弗·黑尔 Jennifer Hale
      Tress MacNeille
      Rob Paulsen
      Corey Burton
      霍兰德·泰勒 Holland Taylor


◎简  介


  本片是迪斯尼1950年动画《仙履奇缘》的衍生剧情,辛德瑞拉(Jennifer Hale 配音)与王子(Christopher Daniel Barnes 配音)渡完蜜月,开始她在皇宫中身为王妃的生活,一开始实在无法适应这样的新生活,但她努力的去适应这种全新的生活。另一方面,辛德瑞拉那群“小朋友”也很想念她,由于辛德瑞拉实在太忙了,没空跟大家玩在一起,吉安帕(Rob Paulsen 配音)甚至还去求神仙教母把他变成人类,他认为如此一来也许辛德瑞拉就会花较多的时间来陪陪他!最后无论是辛德瑞拉还是她的朋友,都发现即使最美好的梦想成真,一切都还是要保持真实的自我,这才是最快乐的生活!



Video
ID                                       : 1
Format                                   : AVC
Format/Info                              : Advanced Video Codec
Format profile                           : High@L4.1
Format settings, CABAC                   : Yes
Format settings, ReFrames                : 4 frames
Codec ID                                 : V_MPEG4/ISO/AVC
Duration                                 : 1h 13mn
Bit rate                                 : 6 152 Kbps
Width                                    : 1 830 pixels
Height                                   : 1 080 pixels
Display aspect ratio                     : 5:3
Frame rate mode                          : Constant
Frame rate                               : 23.976 (24000/1001) fps
Color space                              : YUV
Chroma subsampling                       : 4:2:0
Bit depth                                : 8 bits
Scan type                                : Progressive
Bits/(Pixel*Frame)                       : 0.130
Stream size                              : 3.16 GiB (79%)
Writing library                          : x264 core 125 r2208kMod d9d2288
Encoding settings                        : cabac=1 / ref=4 / deblock=1:-2:-1 / analyse=0x3:0x133 / me=umh / subme=11 / psy=1 / fade_compensate=0.00 / psy_rd=0.60:0.00 / mixed_ref=1 / me_range=32 / chroma_me=1 / trellis=2 / 8x8dct=1 / cqm=0 / deadzone=21,11 / fast_pskip=0 / chroma_qp_offset=-2 / threads=6 / lookahead_threads=1 / sliced_threads=0 / nr=0 / decimate=1 / interlaced=0 / bluray_compat=0 / constrained_intra=0 / bframes=9 / b_pyramid=2 / b_adapt=2 / b_bias=0 / direct=1 / weightb=1 / open_gop=0 / weightp=2 / keyint=250 / keyint_min=23 / scenecut=40 / intra_refresh=0 / rc_lookahead=70 / rc=crf / mbtree=0 / crf=17.7300 / qcomp=0.80 / qpmin=0 / qpmax=69 / qpstep=4 / vbv_maxrate=50000 / vbv_bufsize=62500 / crf_max=0.0 / nal_hrd=none / ip_ratio=1.40 / pb_ratio=1.30 / aq=3:0.90
Language                                 : English
Default                                  : Yes
Forced                                   : No
Color range                              : Limited
Color primaries                          : BT.709
Transfer characteristics                 : BT.709
Matrix coefficients                      : BT.709

Audio
ID                                       : 2
Format                                   : DTS
Format/Info                              : Digital Theater Systems
Mode                                     : 16
Format settings, Endianness              : Big
Codec ID                                 : A_DTS
Duration                                 : 1h 13mn
Bit rate mode                            : Constant
Bit rate                                 : 1 509 Kbps
Channel(s)                               : 6 channels
Channel positions                        : Front: L C R, Side: L R, LFE
Sampling rate                            : 48.0 KHz
Frame rate                               : 93.750 fps (512 spf)
Bit depth                                : 24 bits
Compression mode                         : Lossy
Stream size                              : 793 MiB (19%)
Language                                 : English
Default                                  : Yes
Forced                                   : No

Text #1
ID                                       : 3
Format                                   : UTF-8
Codec ID                                 : S_TEXT/UTF8
Codec ID/Info                            : UTF-8 Plain Text
Language                                 : English
Default                                  : No
Forced                                   : No

Text #2
ID                                       : 4
Format                                   : UTF-8
Codec ID                                 : S_TEXT/UTF8
Codec ID/Info                            : UTF-8 Plain Text
Title                                    : SDH
Language                                 : English
Default                                  : No
Forced                                   : No

Menu
00:00:00.000                             : ru:01. Вступительные титры
00:03:18.949                             : ru:02. Добро пожаловать домой
00:07:21.191                             : ru:03. Новые правила во дворце
00:13:53.750                             : ru:04. Живи, как подсказывают сердце и душа
00:18:36.365                             : ru:05. Первый бал Золушки
00:22:27.680                             : ru:06. Думать о большем
00:27:55.716                             : ru:07. Мир восхищается тобой
00:34:03.959                             : ru:08. Золушке помогают
00:37:44.012                             : ru:09. Праздник весны
00:42:53.321                             : ru:10. Запутанная история
00:46:10.810                             : ru:11. Знакомство с пекарем
00:52:20.262                             : ru:12. Важнее то, что внутри
00:57:22.773                             : ru:13. Мечты сбываются
01:05:14.994                             : ru:14. Финальные титры





       

本帖子中包含更多资源

您需要 登录 才可以下载或查看,没有帐号?立即注册  

x

发表回复

您需要登录后才可以回帖 登录 | 立即注册  

本版积分规则

无觅相关文章插件

快速回复 返回顶部 返回列表