返回列表 发新帖

[BD-Rip] [BT下载]婚礼录像带 The.Wedding.Video.2012.1080p.BluRay.x264.DTS-FGT 6.55G

[复制链接]

发表在  2016-8-3 22:28:37 | 显示全部楼层 | 阅读模式
-->
◎译  名 婚礼录像带
◎片  名 The Wedding Video
◎年  代 2012
◎国  家 英国
◎类  别 喜剧
◎语  言 英语
◎上映日期 2014-05-09(USA)
◎IMDb评分  5.4/10 from 1,871 users
◎IMDb链接  http://www.imdb.com/title/tt2035670/
◎豆瓣评分 6.8/10 from 23 users
◎豆瓣链接 https://movie.douban.com/subject/11501488/
◎片  长 1h 38mn
◎导  演 奈吉·柯尔 Nigel Cole
◎主  演 露茜·彭奇 Lucy Punch
      米瑞安·玛格莱斯 Miriam Margolyes
      Ignacio Guirado


◎简  介


  Fis只想离开科索沃。他找到一个可以帮他申请德国绿卡的假新娘,然而他却丢失了婚礼录像带,那是非常重要的申请文件。现在Fis有三天的时间来拍摄他一生中最幸福的30分钟。经历这一切离奇的事件之后Fis成功了,但事情却没有照他原来的想象那样发展……


Video
ID                                       : 1
Format                                   : AVC
Format/Info                              : Advanced Video Codec
Format profile                           : High@L4.1
Format settings, CABAC                   : Yes
Format settings, ReFrames                : 4 frames
Codec ID                                 : V_MPEG4/ISO/AVC
Duration                                 : 1h 33mn
Bit rate                                 : 8 476 Kbps
Width                                    : 1 920 pixels
Height                                   : 1 040 pixels
Display aspect ratio                     : 1.85:1
Frame rate mode                          : Constant
Frame rate                               : 24.000 fps
Color space                              : YUV
Chroma subsampling                       : 4:2:0
Bit depth                                : 8 bits
Scan type                                : Progressive
Bits/(Pixel*Frame)                       : 0.177
Stream size                              : 5.43 GiB (83%)
Writing library                          : x264 core 129 r2230 1cffe9f
Encoding settings                        : cabac=1 / ref=4 / deblock=1:0:0 / analyse=0x3:0x133 / me=umh / subme=7 / psy=1 / psy_rd=1.00:0.00 / mixed_ref=1 / me_range=16 / chroma_me=1 / trellis=1 / 8x8dct=1 / cqm=0 / deadzone=21,11 / fast_pskip=0 / chroma_qp_offset=-2 / threads=12 / lookahead_threads=2 / sliced_threads=0 / nr=0 / decimate=1 / interlaced=0 / bluray_compat=0 / constrained_intra=0 / bframes=3 / b_pyramid=2 / b_adapt=2 / b_bias=0 / direct=3 / weightb=1 / open_gop=0 / weightp=2 / keyint=250 / keyint_min=24 / scenecut=40 / intra_refresh=0 / rc_lookahead=50 / rc=2pass / mbtree=1 / bitrate=8476 / ratetol=1.0 / qcomp=0.60 / qpmin=0 / qpmax=69 / qpstep=4 / cplxblur=20.0 / qblur=0.5 / ip_ratio=1.40 / aq=1:1.00
Language                                 : English
Default                                  : Yes
Forced                                   : No

Audio
ID                                       : 2
Format                                   : DTS
Format/Info                              : Digital Theater Systems
Mode                                     : 16
Format settings, Endianness              : Big
Codec ID                                 : A_DTS
Duration                                 : 1h 33mn
Bit rate mode                            : Constant
Bit rate                                 : 1 509 Kbps
Channel(s)                               : 6 channels
Channel positions                        : Front: L C R, Side: L R, LFE
Sampling rate                            : 48.0 KHz
Frame rate                               : 93.750 fps (512 spf)
Bit depth                                : 24 bits
Compression mode                         : Lossy
Stream size                              : 1 014 MiB (15%)
Language                                 : English
Default                                  : Yes
Forced                                   : No

Menu
00:00:00.000                             : en:00:00:00.000
00:07:52.292                             : en:00:07:52.292
00:16:18.625                             : en:00:16:18.625
00:20:59.917                             : en:00:20:59.917
00:27:00.542                             : en:00:27:00.542
00:36:32.333                             : en:00:36:32.333
00:42:42.167                             : en:00:42:42.167
00:48:37.083                             : en:00:48:37.083
00:59:53.375                             : en:00:59:53.375
01:06:35.208                             : en:01:06:35.208
01:13:47.167                             : en:01:13:47.167
01:27:43.208                             : en:01:27:43.208





       

本帖子中包含更多资源

您需要 登录 才可以下载或查看,没有帐号?立即注册  

x

发表于 2016-8-11 12:42:57 | 显示全部楼层
观摩一下!

发表回复

您需要登录后才可以回帖 登录 | 立即注册  

本版积分规则

无觅相关文章插件

快速回复 返回顶部 返回列表