返回列表 发新帖

[BD-Rip] [BT下载]死亡的祈祷/祈求死亡 Pray.for.Death.1985.1080p.BluRay.x264.DTS-FGT 8.38G

[复制链接]

发表在  2016-8-3 22:07:36 | 显示全部楼层 | 阅读模式
-->
◎译  名 死亡的祈祷/祈求死亡/忍者无惧
◎片  名 Pray for Death
◎年  代 1985
◎国  家 美国
◎类  别 剧情/动作
◎语  言 英语
◎IMDb评分  5.7/10 from 1,093 users
◎IMDb链接  http://www.imdb.com/title/tt0089835/
◎片  长 1h 38mn
◎片  长 92
◎导  演 Gordon Hessler
◎主  演 Sh Kosugi
      James Booth
      Donna Kei Benz


◎简  介


  None


Video
ID                                       : 1
Format                                   : AVC
Format/Info                              : Advanced Video Codec
Format profile                           : High@L4.1
Format settings, CABAC                   : Yes
Format settings, ReFrames                : 5 frames
Codec ID                                 : V_MPEG4/ISO/AVC
Duration                                 : 1h 34mn
Bit rate                                 : 10.9 Mbps
Width                                    : 1 920 pixels
Height                                   : 816 pixels
Display aspect ratio                     : 2.35:1
Frame rate mode                          : Constant
Frame rate                               : 23.976 (24000/1001) fps
Original frame rate                      : 23.976 (23976/1000) fps
Color space                              : YUV
Chroma subsampling                       : 4:2:0
Bit depth                                : 8 bits
Scan type                                : Progressive
Bits/(Pixel*Frame)                       : 0.291
Stream size                              : 7.22 GiB (86%)
Writing library                          : x264 core 148 r2705 3f5ed56
Encoding settings                        : cabac=1 / ref=5 / deblock=1:0:0 / analyse=0x3:0x133 / me=umh / subme=7 / psy=1 / psy_rd=1.00:0.00 / mixed_ref=1 / me_range=16 / chroma_me=1 / trellis=1 / 8x8dct=1 / cqm=0 / deadzone=21,11 / fast_pskip=0 / chroma_qp_offset=-2 / threads=6 / lookahead_threads=1 / sliced_threads=0 / nr=0 / decimate=1 / interlaced=0 / bluray_compat=0 / constrained_intra=0 / bframes=3 / b_pyramid=2 / b_adapt=1 / b_bias=0 / direct=1 / weightb=1 / open_gop=0 / weightp=2 / keyint=240 / keyint_min=23 / scenecut=40 / intra_refresh=0 / rc_lookahead=40 / rc=crf / mbtree=1 / crf=20.0 / qcomp=0.60 / qpmin=0 / qpmax=69 / qpstep=4 / ip_ratio=1.40 / aq=1:1.00
Language                                 : English
Default                                  : Yes
Forced                                   : No

Audio
ID                                       : 2
Format                                   : DTS
Format/Info                              : Digital Theater Systems
Mode                                     : 16
Format settings, Endianness              : Big
Codec ID                                 : A_DTS
Duration                                 : 1h 34mn
Bit rate mode                            : Constant
Bit rate                                 : 1 509 Kbps
Channel(s)                               : 2 channels
Channel positions                        : Front: L R
Sampling rate                            : 48.0 KHz
Frame rate                               : 93.750 fps (512 spf)
Bit depth                                : 16 bits
Compression mode                         : Lossy
Stream size                              : 1 020 MiB (12%)
Language                                 : English
Default                                  : Yes
Forced                                   : No

Menu
00:00:00.000                             : en:00:00:00.000
00:05:01.593                             : en:00:05:01.593
00:09:58.848                             : en:00:09:58.848
00:18:27.273                             : en:00:18:27.273
00:23:47.343                             : en:00:23:47.343
00:25:41.081                             : en:00:25:41.081
00:31:30.388                             : en:00:31:30.388
00:38:08.620                             : en:00:38:08.620
00:42:29.589                             : en:00:42:29.589
00:50:40.412                             : en:00:50:40.412
00:57:00.917                             : en:00:57:00.917
01:02:40.006                             : en:01:02:40.006
01:07:26.709                             : en:01:07:26.709
01:12:02.693                             : en:01:12:02.693
01:19:35.980                             : en:01:19:35.980
01:31:15.011                             : en:01:31:15.011





       

本帖子中包含更多资源

您需要 登录 才可以下载或查看,没有帐号?立即注册  

x

发表回复

您需要登录后才可以回帖 登录 | 立即注册  

本版积分规则

无觅相关文章插件

快速回复 返回顶部 返回列表