返回列表 发新帖

[BD-Rip] [BT下载]对头冤家/难得有情郎 Nothing.in.Common.1986.1080p.BluRay.x264.DTS-FGT 9.8G

[复制链接]

发表在  2016-8-3 23:12:47 | 显示全部楼层 | 阅读模式
-->
◎译  名 对头冤家/难得有情郎
◎片  名 Nothing in Common
◎年  代 1986
◎国  家 美国
◎类  别 喜剧/剧情/爱情
◎语  言 英语
◎上映日期 1986-07-30
◎IMDb评分  5.9/10 from 4,961 users
◎IMDb链接  http://www.imdb.com/title/tt0091653/
◎豆瓣评分 6.6/10 from 53 users
◎豆瓣链接 https://movie.douban.com/subject/1296567/
◎片  长 118 分钟
◎导  演 盖瑞·马歇尔 Garry Marshall
◎主  演 汤姆·汉克斯 Tom Hanks
      杰基·格黎森 Jackie Gleason
      爱娃·玛丽·森特 Eva Marie Saint


◎简  介


  汤姆·汉克斯片中饰演广告界红人大卫·巴斯诺。他事业有成,生活优悠,忽然接到一通电话:结婚三十六年的母亲决定离开他的父亲。此时大卫不得不回过头来跟父亲相处,赫然发现父子俩的生活方式和观念竟然南辕北辙。


Video
ID                                       : 1
Format                                   : AVC
Format/Info                              : Advanced Video Codec
Format profile                           : High@L4.1
Format settings, CABAC                   : Yes
Format settings, ReFrames                : 4 frames
Codec ID                                 : V_MPEG4/ISO/AVC
Duration                                 : 1h 58mn
Bit rate                                 : 11.5 Mbps
Width                                    : 1 920 pixels
Height                                   : 1 040 pixels
Display aspect ratio                     : 1.85:1
Frame rate mode                          : Constant
Frame rate                               : 23.976 (24000/1001) fps
Color space                              : YUV
Chroma subsampling                       : 4:2:0
Bit depth                                : 8 bits
Scan type                                : Progressive
Bits/(Pixel*Frame)                       : 0.240
Stream size                              : 9.19 GiB (94%)
Writing library                          : x264 core 148 r2694 3b70645
Encoding settings                        : cabac=1 / ref=4 / deblock=1:-2:-2 / analyse=0x3:0x113 / me=umh / subme=7 / psy=1 / psy_rd=1.00:0.15 / mixed_ref=1 / me_range=16 / chroma_me=1 / trellis=1 / 8x8dct=1 / cqm=0 / deadzone=21,11 / fast_pskip=1 / chroma_qp_offset=-3 / threads=40 / lookahead_threads=3 / sliced_threads=0 / nr=0 / decimate=1 / interlaced=0 / bluray_compat=0 / constrained_intra=0 / bframes=3 / b_pyramid=2 / b_adapt=2 / b_bias=0 / direct=3 / weightb=1 / open_gop=0 / weightp=2 / keyint=250 / keyint_min=25 / scenecut=40 / intra_refresh=0 / rc_lookahead=50 / rc=abr / mbtree=1 / bitrate=11500 / ratetol=1.0 / qcomp=0.60 / qpmin=0 / qpmax=69 / qpstep=4 / vbv_maxrate=31250 / vbv_bufsize=31250 / nal_hrd=none / filler=0 / ip_ratio=1.40 / aq=1:1.00
Language                                 : English
Default                                  : Yes
Forced                                   : No

Audio
ID                                       : 2
Format                                   : DTS
Format/Info                              : Digital Theater Systems
Mode                                     : 16
Format settings, Endianness              : Big
Codec ID                                 : A_DTS
Duration                                 : 1h 58mn
Bit rate mode                            : Constant
Bit rate                                 : 510 Kbps
Channel(s)                               : 2 channels
Channel positions                        : Front: L R
Sampling rate                            : 48.0 KHz
Frame rate                               : 93.750 fps (512 spf)
Bit depth                                : 16 bits
Compression mode                         : Lossy
Stream size                              : 434 MiB (4%)
Language                                 : English
Default                                  : Yes
Forced                                   : No

Text
ID                                       : 3
Format                                   : UTF-8
Codec ID                                 : S_TEXT/UTF8
Codec ID/Info                            : UTF-8 Plain Text
Language                                 : English
Default                                  : Yes
Forced                                   : No

Menu
00:00:00.000                             : en:00:00:00.000
00:07:23.234                             : en:00:07:23.234
00:12:58.444                             : en:00:12:58.444
00:19:32.546                             : en:00:19:32.546
00:26:05.898                             : en:00:26:05.898
00:35:15.280                             : en:00:35:15.280
00:40:54.952                             : en:00:40:54.952
00:49:50.696                             : en:00:49:50.696
00:56:13.870                             : en:00:56:13.870
01:02:43.718                             : en:01:02:43.718
01:10:03.699                             : en:01:10:03.699
01:18:56.732                             : en:01:18:56.732
01:26:34.523                             : en:01:26:34.523
01:32:59.073                             : en:01:32:59.073
01:40:20.723                             : en:01:40:20.723
01:48:06.772                             : en:01:48:06.772






       

本帖子中包含更多资源

您需要 登录 才可以下载或查看,没有帐号?立即注册  

x

发表回复

您需要登录后才可以回帖 登录 | 立即注册  

本版积分规则

无觅相关文章插件

快速回复 返回顶部 返回列表