返回列表 发新帖

[BD-Rip] [BT下载]太阳盟续集 The.Return.of.a.Man.Called.Horse.1976.1080p.BluRay.x264.DTS-FGT 13G

[复制链接]

发表在  2016-8-4 02:58:06 | 显示全部楼层 | 阅读模式
-->
◎译  名 太阳盟续集/太阳盟2
◎片  名 The Return of a Man Called Horse
◎年  代 1976
◎国  家 美国
◎类  别 西部/剧情
◎语  言 英语
◎上映日期 1976-08-04
◎IMDb评分  6.1/10 from 1,251 users
◎IMDb链接  http://www.imdb.com/title/tt0075132/
◎BT之家整理 http://www.btbbt.cc
◎片  长 129 分钟
◎导  演 厄文·克什纳 Irvin Kershner
◎主  演 理查德·哈里斯 Richard Harris
      盖尔·桑德加德 Gale Sondergaard
      杰佛里·刘易斯 Geoffrey Lewis


◎简  介


  英国贵族约翰·摩根太阳盟续集太阳盟续集在数年后重回美国西部找寻曾经收容过他的苏族部落,却发现他们的土地被人夺去,族人也被迫变成奴隶。为了帮苏族重新建立家园,摩根脱下文明人的衣服,再次加入他们之中成为苏族战士,再振军容发动圣战。




Video
ID                                       : 1
Format                                   : AVC
Format/Info                              : Advanced Video Codec
Format profile                           : High@L4.1
Format settings, CABAC                   : Yes
Format settings, ReFrames                : 4 frames
Codec ID                                 : V_MPEG4/ISO/AVC
Duration                                 : 2h 5mn
Bit rate                                 : 14.1 Mbps
Width                                    : 1 920 pixels
Height                                   : 816 pixels
Display aspect ratio                     : 2.35:1
Frame rate mode                          : Constant
Frame rate                               : 23.976 (24000/1001) fps
Color space                              : YUV
Chroma subsampling                       : 4:2:0
Bit depth                                : 8 bits
Scan type                                : Progressive
Bits/(Pixel*Frame)                       : 0.375
Stream size                              : 12.1 GiB (88%)
Writing library                          : x264 core 148 r2694 3b70645
Encoding settings                        : cabac=1 / ref=4 / deblock=1:-3:-3 / analyse=0x3:0x133 / me=umh / subme=10 / psy=1 / psy_rd=1.00:0.00 / mixed_ref=1 / me_range=48 / chroma_me=1 / trellis=2 / 8x8dct=1 / cqm=0 / deadzone=21,11 / fast_pskip=0 / chroma_qp_offset=-2 / threads=12 / lookahead_threads=3 / sliced_threads=0 / nr=0 / decimate=0 / interlaced=0 / bluray_compat=0 / constrained_intra=0 / bframes=10 / b_pyramid=2 / b_adapt=2 / b_bias=0 / direct=3 / weightb=1 / open_gop=0 / weightp=2 / keyint=250 / keyint_min=23 / scenecut=40 / intra_refresh=0 / rc_lookahead=60 / rc=2pass / mbtree=0 / bitrate=14100 / ratetol=1.0 / qcomp=0.65 / qpmin=0 / qpmax=69 / qpstep=4 / cplxblur=20.0 / qblur=0.5 / vbv_maxrate=62500 / vbv_bufsize=78125 / nal_hrd=none / filler=0 / ip_ratio=1.40 / pb_ratio=1.30 / aq=1:0.90
Language                                 : English
Default                                  : Yes
Forced                                   : No

Audio
ID                                       : 2
Format                                   : DTS
Format/Info                              : Digital Theater Systems
Mode                                     : 16
Format settings, Endianness              : Big
Codec ID                                 : A_DTS
Duration                                 : 2h 5mn
Bit rate mode                            : Constant
Bit rate                                 : 1 509 Kbps
Channel(s)                               : 2 channels
Channel positions                        : Front: L R
Sampling rate                            : 48.0 KHz
Frame rate                               : 93.750 fps (512 spf)
Bit depth                                : 24 bits
Compression mode                         : Lossy
Stream size                              : 1.33 GiB (10%)
Language                                 : English
Default                                  : Yes
Forced                                   : No

Text
ID                                       : 3
Format                                   : UTF-8
Codec ID                                 : S_TEXT/UTF8
Codec ID/Info                            : UTF-8 Plain Text
Language                                 : English
Default                                  : Yes
Forced                                   : No

Menu
00:00:00.000                             : en:Chapter 01
00:21:02.219                             : en:Chapter 02
00:36:47.622                             : en:Chapter 03
00:51:00.474                             : en:Chapter 04
01:08:41.575                             : en:Chapter 05
01:21:43.064                             : en:Chapter 06
01:36:11.223                             : en:Chapter 07
01:48:22.078                             : en:Chapter 08





       

本帖子中包含更多资源

您需要 登录 才可以下载或查看,没有帐号?立即注册  

x

发表回复

您需要登录后才可以回帖 登录 | 立即注册  

本版积分规则

无觅相关文章插件

快速回复 返回顶部 返回列表