返回列表 发新帖

[BD-Rip] [BT下载]当纳聚会 The.Donner.Party.2009.1080p.BluRay.x264.DTS-FGT 7.8G

[复制链接]

发表在  2016-8-4 02:42:07 | 显示全部楼层 | 阅读模式
-->
◎译  名 当纳聚会
◎片  名 The Donner Party
◎年  代 2009
◎国  家 美国
◎类  别 剧情/西部
◎语  言 英语
◎上映日期 2009-10-23
◎IMDb评分  5.2/10 from 788 users
◎IMDb链接  http://www.imdb.com/title/tt1219336/
◎豆瓣评分 6.8/10 from 12 users
◎豆瓣链接 https://movie.douban.com/subject/4250383/
◎BT之家整理 http://www.btbbt.cc
◎片  长 USA: 95 分钟
◎导  演 T.J. Martin
◎主  演 克里斯平·格洛弗 Crispin Glover
      克莱恩·克劳福德 Clayne Crawford
      Michele Santopietro


◎简  介


  本片根据悲惨的真实故事改编。
  剧情:在美国历史上曾经爆发了一次到西部淘金的移民大潮,人们从四面八方涌向加利福尼亚。“当纳聚会”就是前往加利福尼亚的又一次长途跋涉之旅,也是惨烈的“死亡之旅”。。。
  本片预定于 2010年1月26日上映
  真实历史:1846年夏天,数队人马自福特布里奇朝加州进发。在“当纳聚会”开始前不久,由哈斯廷斯本人率领的队伍也出发了,他们计划走捷径。然而,当他们抵达福特布里奇时,却发现哈斯廷斯的队伍早就走了。少了哈斯廷斯这个向导,这群人中有一部分只好选择了更被人熟知的传统路线,另一部分人则坚持要走哈斯廷斯所倡导的捷径。最终,总共有87人分别乘坐23辆马车驶上捷径。他们此行之所以被称为“当纳聚会”,是因为他们选举乔治·当纳为队长。7月31日,他们离开福特布里奇,踏上了漫漫征途。
  两个星期之后,“当纳聚会”就首遭重创。当时,他们刚刚到达犹他州瓦沙其山那灌木丛生的陡峭斜坡。这里的地势异常艰险,为了翻过山崖,成员们首先得为马车开辟道路,他们汗流浃背地辛苦了16天,才走出了不到60公里的道路,而此时他们全都已累得筋疲力尽。直到9月30日,他们终于抵达内华达州,出现在与传统路线的汇合处。
  到11月1日,他们艰难万分地抵达特纳基湖(后来被命名为当纳湖)。特纳基湖海拔1800多米,早在10月底,这里就已是大雪纷飞,现在又发生了严重的雪暴。当成员们试图翻越高达2200米的山口时,却发现他们来得太迟,已没有能力战胜猛烈的雪暴。他们不得不在湖边面对漫长而严酷的冬季。更要命的是,他们的口粮已所剩无几。甚至在到达特纳基湖之前,死神就已开始光顾“当纳聚会”:8月29日,鲁克·哈罗兰死了,很可能是死于肺结核;10月5日,詹姆斯·里德在自卫时,用刀误杀了约翰·斯尼德;3天后,刘易斯·凯斯伯格将搭乘便车的老人哈德库珀赶下了车,而大多数队员竟然都拒绝停下车来寻找这位老人;10月13日之后的某一天,两个德国移民又为谋财而将另一个德国人杀死;10月20日,威廉·派克被他的舅子因擦枪走火而误杀。
  此外,早些时候有4名成员离队前往萨茨堡寻找给养和救助。其中一个叫查尔斯·斯坦顿的人于10月19日返回,并带回了食物和两个印第安人。由此,在原有的87人中,有79人外加两个印第安人被困在了冬季的当纳湖湖边。饥寒交迫的队员们很快就将剩下的食物消耗殆尽。然后,他们开始杀牲取食。接着,他们又吃掉了自己的狗。最后,他们将兽皮和毛毯熬成胶状的汤来食用。 10月16日,24岁的巴利·威廉第一个被饿死。同一天,成员中身体最强壮的15人穿上自制的雪靴,冒着严寒离开营地,希望能寻到帮助。在这10个男人中,有4人把家人丢在了后面;而在这5个女人中,有3人丢下了自己的孩子。出外逃生的第六天,精疲力竭的斯坦顿让其他14人继续往前走,自己则留下来面对死神。到了第十九天,这剩下的14人开始公开谈论人吃人的话题。结果他们决定等某人自然死亡之后再吃掉他。这样的机会很快就出现了。23岁的单身汉安托因在睡梦中手臂不慎掉进火堆,却无人理他了。安托因就这么死去。接着是富兰克林·格雷福,然后是帕特里克·多兰,再接着是勒缪·墨菲。活着的人从尸体上割下肉并烤着吃掉,但他们都不吃自己亲戚的肉。当尸体也被消耗完之后,幸存的人又开始吃起了旧皮鞋。到了次年1月5日,23岁的杰·弗迪克死了。福斯特夫人将弗迪克的尸体吃掉。接着,已经精神失常的福斯特先生又吃掉了两名印第安人。这样,原来的15人现在只剩下7人。在经过33天雪中跋涉之后,最后剩下的7人终于抵达加利福尼亚的第一个白人定居点———当纳湖定居点。
  1月31日,第一个救援小组出发前往当纳湖定居点。此后,又有3个小组出发。直到两个半月之后,“当纳聚会”成员们的苦难才告结束。而在这两个半月的时间里,又有更多的人没能逃过死神的魔爪。到2月末时,湖边营地中也出现了人吃人的现象。3月13日,当随其他13人外出寻找帮助的威廉·福斯特同第三支救援小组返回湖边营地时,发现自己的两个儿子都已被凯斯伯格和其他4人留在了原地。4月17日,最后一组救援人员到达当纳湖,此时营地里只剩下凯斯伯格一个人,其他人则全部变成了被肢解的尸体。凯斯伯格否认其他人是被他杀死的。
  至此,在“当纳聚会”的87名成员中,死去的就有40人。



Video
ID                                       : 1
Format                                   : AVC
Format/Info                              : Advanced Video Codec
Format profile                           : High@L4.1
Format settings, CABAC                   : Yes
Format settings, ReFrames                : 5 frames
Codec ID                                 : V_MPEG4/ISO/AVC
Duration                                 : 1h 28mn
Bit rate                                 : 10.8 Mbps
Width                                    : 1 920 pixels
Height                                   : 816 pixels
Display aspect ratio                     : 2.35:1
Frame rate mode                          : Constant
Frame rate                               : 23.976 (24000/1001) fps
Color space                              : YUV
Chroma subsampling                       : 4:2:0
Bit depth                                : 8 bits
Scan type                                : Progressive
Bits/(Pixel*Frame)                       : 0.288
Stream size                              : 6.71 GiB (86%)
Writing library                          : x264 core 148 r2694 3b70645
Encoding settings                        : cabac=1 / ref=5 / deblock=1:-3:-3 / analyse=0x3:0x133 / me=umh / subme=10 / psy=1 / psy_rd=1.00:0.00 / mixed_ref=1 / me_range=48 / chroma_me=1 / trellis=2 / 8x8dct=1 / cqm=0 / deadzone=21,11 / fast_pskip=0 / chroma_qp_offset=-2 / threads=12 / lookahead_threads=3 / sliced_threads=0 / nr=0 / decimate=0 / interlaced=0 / bluray_compat=0 / constrained_intra=0 / bframes=10 / b_pyramid=2 / b_adapt=2 / b_bias=0 / direct=3 / weightb=1 / open_gop=0 / weightp=2 / keyint=250 / keyint_min=23 / scenecut=40 / intra_refresh=0 / rc_lookahead=60 / rc=crf / mbtree=0 / crf=16.0 / qcomp=0.65 / qpmin=0 / qpmax=69 / qpstep=4 / vbv_maxrate=62500 / vbv_bufsize=78125 / crf_max=0.0 / nal_hrd=none / filler=0 / ip_ratio=1.40 / pb_ratio=1.30 / aq=1:0.90
Language                                 : English
Default                                  : Yes
Forced                                   : No

Audio
ID                                       : 2
Format                                   : DTS
Format/Info                              : Digital Theater Systems
Mode                                     : 16
Format settings, Endianness              : Big
Codec ID                                 : A_DTS
Duration                                 : 1h 28mn
Bit rate mode                            : Constant
Bit rate                                 : 1 509 Kbps
Channel(s)                               : 6 channels
Channel positions                        : Front: L C R, Side: L R, LFE
Sampling rate                            : 48.0 KHz
Frame rate                               : 93.750 fps (512 spf)
Bit depth                                : 24 bits
Compression mode                         : Lossy
Stream size                              : 957 MiB (12%)
Language                                 : English
Default                                  : Yes
Forced                                   : No

Menu
00:00:00.000                             : en:Chapter 01
00:08:46.692                             : en:Chapter 02
00:16:12.012                             : en:Chapter 03
00:25:40.038                             : en:Chapter 04
00:40:33.222                             : en:Chapter 05
00:51:02.976                             : en:Chapter 06
00:57:43.251                             : en:Chapter 07
01:06:19.558                             : en:Chapter 08
01:11:38.836                             : en:Chapter 09
01:20:27.656                             : en:Chapter 10
01:22:44.584                             : en:Chapter 11
01:25:05.058                             : en:Chapter 12
01:28:36.019                             : en:Chapter 13







       

本帖子中包含更多资源

您需要 登录 才可以下载或查看,没有帐号?立即注册  

x

发表于 2016-8-4 17:46:04 | 显示全部楼层
下来观摩,感谢分享!

发表回复

您需要登录后才可以回帖 登录 | 立即注册  

本版积分规则

无觅相关文章插件

快速回复 返回顶部 返回列表