返回列表 发新帖

[BD-Rip] [BT下载]血溅回旋路 Roadgames.1981.1080p.BluRay.x264.DD5.1-FGT 10.1G

[复制链接]

发表在  2016-8-4 02:34:12 | 显示全部楼层 | 阅读模式
-->
◎译  名 血溅回旋路
◎片  名 Roadgames
◎年  代 1981
◎国  家 澳大利亚
◎类  别 剧情/惊悚
◎语  言 英语
◎上映日期 1981-06-26
◎IMDb评分  6.7/10 from 2,951 users
◎IMDb链接  http://www.imdb.com/title/tt0083000/
◎豆瓣评分 6.9/10 from 86 users
◎豆瓣链接 https://movie.douban.com/subject/1295449/
◎BT之家整理 http://www.btbbt.cc
◎片  长 101 分钟/Sweden: 93 分钟
◎导  演 理查德·富兰克林 Richard Franklin
◎主  演 Stacy Keach
      Jamie Lee Curtis
      Marion Edward


◎简  介


  奎德是一个有丰富想像力的卡车司机,他开车载送一车的冷冻猪内横跨澳洲到伯斯,在途中,他遇上一名疯子,专门绑架强暴女孩子,并把她们解体后埋起来。后来奎德又遇上希琪,二人决定一起追捕这名杀 人魔 ,但事情并没有想像中的顺利…




Video
ID                                       : 1
Format                                   : AVC
Format/Info                              : Advanced Video Codec
Format profile                           : High@L4.1
Format settings, CABAC                   : Yes
Format settings, ReFrames                : 5 frames
Codec ID                                 : V_MPEG4/ISO/AVC
Duration                                 : 1h 40mn
Bit rate                                 : 13.7 Mbps
Width                                    : 1 920 pixels
Height                                   : 800 pixels
Display aspect ratio                     : 2.40:1
Frame rate mode                          : Constant
Frame rate                               : 23.976 (24000/1001) fps
Color space                              : YUV
Chroma subsampling                       : 4:2:0
Bit depth                                : 8 bits
Scan type                                : Progressive
Bits/(Pixel*Frame)                       : 0.372
Stream size                              : 9.59 GiB (95%)
Writing library                          : x264 core 148 r2694 3b70645
Encoding settings                        : cabac=1 / ref=5 / deblock=1:-3:-3 / analyse=0x3:0x133 / me=umh / subme=10 / psy=1 / psy_rd=1.00:0.00 / mixed_ref=1 / me_range=48 / chroma_me=1 / trellis=2 / 8x8dct=1 / cqm=0 / deadzone=21,11 / fast_pskip=0 / chroma_qp_offset=-2 / threads=12 / lookahead_threads=3 / sliced_threads=0 / nr=0 / decimate=0 / interlaced=0 / bluray_compat=0 / constrained_intra=0 / bframes=10 / b_pyramid=2 / b_adapt=2 / b_bias=0 / direct=3 / weightb=1 / open_gop=0 / weightp=2 / keyint=250 / keyint_min=23 / scenecut=40 / intra_refresh=0 / rc_lookahead=60 / rc=crf / mbtree=0 / crf=17.0 / qcomp=0.65 / qpmin=0 / qpmax=69 / qpstep=4 / vbv_maxrate=62500 / vbv_bufsize=78125 / crf_max=0.0 / nal_hrd=none / filler=0 / ip_ratio=1.40 / pb_ratio=1.30 / aq=1:0.90
Language                                 : English
Default                                  : Yes
Forced                                   : No

Audio
ID                                       : 2
Format                                   : AC-3
Format/Info                              : Audio Coding 3
Mode extension                           : CM (complete main)
Format settings, Endianness              : Big
Codec ID                                 : A_AC3
Duration                                 : 1h 40mn
Bit rate mode                            : Constant
Bit rate                                 : 448 Kbps
Channel(s)                               : 6 channels
Channel positions                        : Front: L C R, Side: L R, LFE
Sampling rate                            : 48.0 KHz
Frame rate                               : 31.250 fps (1536 spf)
Compression mode                         : Lossy
Stream size                              : 321 MiB (3%)
Language                                 : English
Default                                  : Yes
Forced                                   : No

Text
ID                                       : 3
Format                                   : UTF-8
Codec ID                                 : S_TEXT/UTF8
Codec ID/Info                            : UTF-8 Plain Text
Language                                 : English
Default                                  : Yes
Forced                                   : No

Menu
00:00:00.000                             : en:Chapter 01
00:04:37.235                             : en:Chapter 02
00:08:17.538                             : en:Chapter 03
00:15:59.667                             : en:Chapter 04
00:28:31.668                             : en:Chapter 05
00:36:43.201                             : en:Chapter 06
00:45:18.882                             : en:Chapter 07
00:53:41.760                             : en:Chapter 08
01:03:33.142                             : en:Chapter 09
01:14:44.771                             : en:Chapter 10
01:20:24.528                             : en:Chapter 11
01:28:58.166                             : en:Chapter 12
01:35:24.051                             : en:Chapter 13





       

本帖子中包含更多资源

您需要 登录 才可以下载或查看,没有帐号?立即注册  

x

发表回复

您需要登录后才可以回帖 登录 | 立即注册  

本版积分规则

无觅相关文章插件

快速回复 返回顶部 返回列表