返回列表 发新帖

[BD-Rip] [BT下载]普巴格达咖啡馆/甜蜜咖啡屋 Bagdad.Cafe.1987.1080p.BluRay.x264-CiNEFiLE 7.9G

[复制链接]

发表在  2016-8-4 01:53:51 | 显示全部楼层 | 阅读模式
-->
◎译  名 巴格达咖啡馆/甜蜜咖啡屋/发达咖啡室
◎片  名 Out of Rosenheim
◎年  代 1987
◎国  家 西德/美国
◎类  别 喜剧/剧情
◎语  言 英语/德语
◎上映日期 1987-11-12
◎IMDb评分  7.5/10 from 9,589 users
◎IMDb链接  http://www.imdb.com/title/tt0095801/
◎豆瓣评分 8.3/10 from 737 users
◎豆瓣链接 https://movie.douban.com/subject/1306170/
◎BT之家整理 http://www.btbbt.cc
◎片  长 95 分钟/Germany: 108 分钟
◎导  演 Percy Adlon
◎主  演 杰克·帕兰斯 Jack Palance
      马丽安·萨格布雷特 Marianne Sgebrecht
      希·庞德 CCH Pounder
      克里斯汀·考夫曼 Christine Kaufmann


◎简  介


  和丈夫争吵后,一位丰盈的德裔女子独自留宿兼营咖啡馆的汽车旅馆。争吵时遗落的保温高压水壶盛满咖啡尾随她到来,成了这场魔术的第一个道具。
  咖啡馆女老板的丈夫愤然离家,她无法理解儿子的音乐、无法接受女儿的时髦、无法忍受襁褓中的哭闹,只得游离在三个孩子的生活之外充当局外人;她经营的咖啡馆内没有咖啡机,吧台积满灰尘;她管理的旅馆住着一位迟迟没有作品的画家,一位没有生意的纹身女郎。巴格达咖啡馆的女主人被生活的尘埃包裹,已经黯然失色,她无法再容忍一位不速之客。
  德裔女子将目睹的一切当作一股可以理解的迷惑,并执意留下。一场大扫除之后,巴格达咖啡馆成了沙漠中的彩虹;男装改成时髦女装帮女老板的女儿度过青春期;端坐一旁,听女老板的儿子的钢琴演奏;利用丈夫的魔术道具学习魔术,并为咖啡馆奉上余兴节目。德裔女子所作的事只是生活中的常态,但是在巴格达沙漠中的这个咖啡馆看来,着实是一场魔术。


Video
ID                                       : 1
Format                                   : AVC
Format/Info                              : Advanced Video Codec
Format profile                           : High@L4.1
Format settings, CABAC                   : Yes
Format settings, ReFrames                : 4 frames
Codec ID                                 : V_MPEG4/ISO/AVC
Duration                                 : 1h 48mn
Bit rate                                 : 9 723 Kbps
Width                                    : 1 920 pixels
Height                                   : 1 072 pixels
Display aspect ratio                     : 16:9
Frame rate mode                          : Constant
Frame rate                               : 23.976 (24000/1001) fps
Color space                              : YUV
Chroma subsampling                       : 4:2:0
Bit depth                                : 8 bits
Scan type                                : Progressive
Bits/(Pixel*Frame)                       : 0.197
Stream size                              : 7.21 GiB (91%)
Writing library                          : x264 core 75 r1259 dd026f2
Encoding settings                        : cabac=1 / ref=4 / deblock=1:0:0 / analyse=0x3:0x2 / me=umh / subme=7 / psy=1 / psy_rd=1.0:0.0 / mixed_ref=1 / me_range=16 / chroma_me=1 / trellis=1 / 8x8dct=1 / cqm=0 / deadzone=21,11 / chroma_qp_offset=-2 / threads=6 / nr=0 / decimate=1 / mbaff=0 / bframes=3 / b_pyramid=0 / b_adapt=1 / b_bias=0 / direct=1 / wpredb=1 / keyint=250 / keyint_min=25 / scenecut=40 / rc_lookahead=40 / rc=2pass / mbtree=1 / bitrate=9723 / ratetol=1.0 / qcomp=0.60 / qpmin=10 / qpmax=51 / qpstep=4 / cplxblur=20.0 / qblur=0.5 / ip_ratio=1.40 / aq=1:1.00
Language                                 : English
Default                                  : Yes
Forced                                   : No

Audio
ID                                       : 2
Format                                   : DTS
Format/Info                              : Digital Theater Systems
Mode                                     : 16
Format settings, Endianness              : Big
Codec ID                                 : A_DTS
Duration                                 : 1h 48mn
Bit rate mode                            : Constant
Bit rate                                 : 768 Kbps
Channel(s)                               : 2 channels
Channel positions                        : Front: L R
Sampling rate                            : 48.0 KHz
Frame rate                               : 93.750 fps (512 spf)
Bit depth                                : 24 bits
Compression mode                         : Lossy
Stream size                              : 596 MiB (7%)
Language                                 : English
Default                                  : Yes
Forced                                   : No

Text
ID                                       : 3
Format                                   : UTF-8
Codec ID                                 : S_TEXT/UTF8
Codec ID/Info                            : UTF-8 Plain Text
Language                                 : English
Default                                  : Yes
Forced                                   : No





       

本帖子中包含更多资源

您需要 登录 才可以下载或查看,没有帐号?立即注册  

x

发表回复

您需要登录后才可以回帖 登录 | 立即注册  

本版积分规则

无觅相关文章插件

快速回复 返回顶部 返回列表