返回列表 发新帖

[BD-Rip] [BT下载]贝利:传奇的诞生 Pele.Birth.Of.A.Legend.2016.1080p.BluRay.x264.DTS-FGT 9.3G

[复制链接]

发表在  2016-8-4 10:16:24 | 显示全部楼层 | 阅读模式
-->
◎译  名 贝利:传奇的诞生/球王比利(港)
◎片  名 Pelé: Birth of a Legend
◎年  代 2016
◎国  家 美国
◎类  别 剧情/传记/运动
◎语  言 英语
◎上映日期 2016-05-06(美国)
◎IMDb评分  7.4/10 from 2,572 users
◎IMDb链接  http://www.imdb.com/title/tt0995868/
◎豆瓣评分 8.1/10 from 55 users
◎豆瓣链接 https://movie.douban.com/subject/3073268/
◎BT之家整理 http://www.btbbt.cc
◎导  演 Jeff Zimbalist / Michael Zimbalist
◎主  演 罗德里格·桑托罗 Rodrigo Santoro
      文森特·诺费奥 Vincent D'Onofrio
      迪耶戈·博内塔 Diego Boneta
      科尔姆·米尼 Colm Meaney
      索·豪黑 Seu Jorge
      米尔顿·哥恩卡维斯 Milton Gonalves
      安德瑞马托斯 André Mattos
      Tonya Cornelisse
      Brandon Wilson


◎简  介


  讲述了球王贝利从一个普通的巴西贫民靠自己的努力,成为足球世界的最强者的故事。


Video
ID                                       : 1
Format                                   : AVC
Format/Info                              : Advanced Video Codec
Format profile                           : High@L4.1
Format settings, CABAC                   : Yes
Format settings, ReFrames                : 5 frames
Codec ID                                 : V_MPEG4/ISO/AVC
Duration                                 : 1h 47mn
Bit rate                                 : 10.7 Mbps
Width                                    : 1 920 pixels
Height                                   : 800 pixels
Display aspect ratio                     : 2.40:1
Frame rate mode                          : Constant
Frame rate                               : 23.976 (24000/1001) fps
Color space                              : YUV
Chroma subsampling                       : 4:2:0
Bit depth                                : 8 bits
Scan type                                : Progressive
Bits/(Pixel*Frame)                       : 0.291
Stream size                              : 8.00 GiB (86%)
Writing library                          : x264 core 148 r2705 3f5ed56
Encoding settings                        : cabac=1 / ref=5 / deblock=1:-3:-3 / analyse=0x3:0x133 / me=umh / subme=11 / psy=1 / psy_rd=0.95:0.10 / mixed_ref=1 / me_range=64 / chroma_me=1 / trellis=2 / 8x8dct=1 / cqm=0 / deadzone=21,11 / fast_pskip=0 / chroma_qp_offset=-2 / threads=25 / lookahead_threads=4 / sliced_threads=0 / nr=0 / decimate=1 / interlaced=0 / bluray_compat=0 / constrained_intra=0 / bframes=8 / b_pyramid=2 / b_adapt=2 / b_bias=0 / direct=3 / weightb=1 / open_gop=0 / weightp=2 / keyint=250 / keyint_min=23 / scenecut=40 / intra_refresh=0 / rc_lookahead=120 / rc=crf / mbtree=1 / crf=15.2 / qcomp=0.60 / qpmin=0 / qpmax=69 / qpstep=4 / vbv_maxrate=50000 / vbv_bufsize=55000 / crf_max=0.0 / nal_hrd=none / filler=0 / ip_ratio=1.40 / aq=3:0.80 / zones=146141,154064,crf=25
Language                                 : English
Default                                  : Yes
Forced                                   : No
Color range                              : Limited
Color primaries                          : BT.709
Transfer characteristics                 : BT.709
Matrix coefficients                      : BT.709

Audio
ID                                       : 2
Format                                   : DTS
Format/Info                              : Digital Theater Systems
Mode                                     : 16
Format settings, Endianness              : Big
Codec ID                                 : A_DTS
Duration                                 : 1h 47mn
Bit rate mode                            : Constant
Bit rate                                 : 1 509 Kbps
Channel(s)                               : 6 channels
Channel positions                        : Front: L C R, Side: L R, LFE
Sampling rate                            : 48.0 KHz
Frame rate                               : 93.750 fps (512 spf)
Bit depth                                : 24 bits
Compression mode                         : Lossy
Stream size                              : 1.13 GiB (12%)
Language                                 : English
Default                                  : Yes
Forced                                   : No

Text
ID                                       : 3
Format                                   : UTF-8
Codec ID                                 : S_TEXT/UTF8
Codec ID/Info                            : UTF-8 Plain Text
Language                                 : English
Default                                  : Yes
Forced                                   : No

Menu
00:00:00.000                             : en:Chapter 1
00:08:37.808                             : en:Chapter 2
00:15:48.155                             : en:Chapter 3
00:27:30.982                             : en:Chapter 4
00:34:55.093                             : en:Chapter 5
00:43:33.569                             : en:Chapter 6
00:53:53.772                             : en:Chapter 7
01:04:19.730                             : en:Chapter 8
01:14:40.309                             : en:Chapter 9
01:21:35.056                             : en:Chapter 10
01:29:41.000                             : en:Chapter 11
01:42:00.072                             : en:Chapter 12





       

本帖子中包含更多资源

您需要 登录 才可以下载或查看,没有帐号?立即注册  

x

发表于 2016-8-5 10:10:58 | 显示全部楼层
感谢楼主分享

发表于 2016-8-5 10:11:15 | 显示全部楼层

发表回复

您需要登录后才可以回帖 登录 | 立即注册  

本版积分规则

无觅相关文章插件

快速回复 返回顶部 返回列表